За сегодня опубликовано 10 новых материалов.
Инструкция новичку Путеводитель по форуму Прокси для Telegram Показать подсказки , это бомба!

Скачать Доктор, доктор / Doctor Doctor [S01] (2016) WEB-DLRip 720p | AlexFilm бесплатно через торрент

  • Получай до 480 рублей за каждого приглашенного пользователя!
    представляем Вам очередное расширение партнерской программы, подробности описаны тут -> ссылка
  • 90% материалов доступно к скачиванию после простой регистрации!
    Если же ты хочешь скачивать материалы без требования оставлять отзывы то получи группу "Новичок", 10 способов повышения описаны тут -> ссылка
  • К сожалению количество битых ссылок растет и мы уже не можем их оперативно восстанавливать поэтому просим помощи у каждого нашего пользователя.
    С сегодняшнего дня, за каждую восстановленную ссылку мы заплатим Вам.
    Подробнее тут -> ссылка
  • Перенесем твои заслуги с другого ресурса!
    Мы понимаем как сложно прокачивать аккаунты на форумах, вроде раскачал аккаунт, а тут появляется ресурс в 100 раз круче но тоже с системой прокачки и снова качать аккаунт...
    Предлагаем вам перенести Ваши заслуги на другом подобном ресурсе к нам.
    Подробности описаны тут -> ссылка
  • Вы можете получать по 2.5% с каждой покупки и продажи на маркете! Подробности в теме Партнёрская программа
Если Вы не хотите скачивать, Вы всегда можете посмотреть онлайн, просто нажмите кнопку ниже :

Открыть плеер

Torrent_Bot

Торрент-Бот
Бот форума
4 Окт 2016
125
32
20
Доктор, доктор / Doctor Doctor

Страна: Австралия
Производство: Essential Media & Entertainment
Год выпуска: 2016
Сезон: 1
Жанр:драма
Продолжительность: х ~00:46:00

Режиссеры: Питер Сэлмон, Джереми Симс, Крив Стендерс
Авторы сценария: Йен Колли, Алан Харрис, Клаудия Карван

В ролях: Роджер Корсер, Николь Да Силва, Райан Джонсон, Тина Бурсилл, Хейли МакЭлхинни, Хлоя Бэйлисс, Белинда Бромилов, Чарльз Ву

Описание: После череды неудач медицинский совет отправляет кардиохирурга Хью Найта работать терапевтом в своём родном городе Вайхоуп, в австралийской глубинке. Однако этому возвращению рады далеко не все жители городка...



Перевод: Профессиональный (многоголосый, закадровый) | AlexFilm
Субтитры: нет


Качество: WEB-DLRip 720p
Формат: МКV
Видео кодек: AVC
Аудио кодек: АС3
Видео: [email protected] (16:9), 25.000 fps, MPEG-4 AVC ~3 953 kbps avg
Аудио №1: 48.0 kHz, AC3 Dolby Digital, 2/0 (L,R) ch, ~192 kbps | RUS
Аудио №2: 48.0 kHz, AC3 Dolby Digital, 2/0 (L,R) ch, ~192 kbps | ENG

Дата премьеры (мир): 14 сентября 2016

Media Info
General
Формат : Matroska
Версия формата : Version 4 / Version 2
Размер файла : 1,47 Гбайт
Продолжительность : 47 м. 42 с.
Общий поток : 4425 Кбит/сек
Название фильма : Doctor Doctor (AU) 1x01 @ AlexFilm
Дата кодирования : UTC 2016-09-19 09:55:31
Программа кодирования : mkvmerge v7.1.0 ('Good Love') 64bit built on Jul 27 2014 13:06:55
Библиотека кодирования : libebml v1.3.0 + libmatroska v1.4.1

Видео
Идентификатор : 1
Формат : AVC
Формат/Информация : Advanced Video Codec
Профиль формата : [email protected]
Параметр CABAC формата : Нет
Параметр ReFrames формата : 2 кадра
Идентификатор кодека : V_MPEG4/ISO/AVC
Продолжительность : 47 м. 42 с.
Битрейт : 3953 Кбит/сек
Ширина : 960 пикселей
Высота : 718 пикселей
Соотношение сторон : 16:9
Режим частоты кадров : Постоянный
Частота кадров : 25,000 кадров/сек
Цветовое пространство : YUV
Субдискретизация насыщенности : 4:2:0
Битовая глубина : 8 бит
Тип развёртки : Прогрессивная
Бит/(Пиксели*Кадры) : 0.229
Размер потока : 1,32 Гбайт (89%)
Язык : English
Default : Да
Forced : Нет
Цветовой диапазон : Limited
Основные цвета : BT.709
Характеристики трансфера : BT.709
Коэффициенты матрицы : BT.709

Аудио #1
Идентификатор : 2
Формат : AC-3
Формат/Информация : Audio Coding 3
Расширение режима : CM (complete main)
Параметр Endianness формата : Big
Идентификатор кодека : A_AC3
Продолжительность : 47 м. 42 с.
Вид битрейта : Постоянный
Битрейт : 192 Кбит/сек
Каналы : 2 канала
Расположение каналов : Front: L R
Частота : 48,0 КГц
Частота кадров : 31,250 кадров/сек (1536 spf)
Метод сжатия : С потерями
Размер потока : 65,5 Мбайт (4%)
Заголовок : DD2.0 AlexFilm
Язык : Russian
Default : Да
Forced : Нет

Аудио #2
Идентификатор : 3
Формат : AC-3
Формат/Информация : Audio Coding 3
Расширение режима : CM (complete main)
Параметр Endianness формата : Big
Идентификатор кодека : A_AC3
Продолжительность : 47 м. 42 с.
Вид битрейта : Постоянный
Битрейт : 192 Кбит/сек
Каналы : 2 канала
Расположение каналов : Front: L R
Частота : 48,0 КГц
Частота кадров : 31,250 кадров/сек (1536 spf)
Метод сжатия : С потерями
Размер потока : 65,5 Мбайт (4%)
Заголовок : DD2.0 Original
Язык : English
Default : Нет
Forced : Нет
Скриншоты
 

Вложения

  • 38 KB Просмотры: 0
    Личеров 0
    Сидеров 0
    Файлов 10
    Объем 14,5 GB
Ваш e-mail не будет опубликован. Он потребуется для подтверждения Вашего поста.
Оформление текста Нажмите «Ввод», чтобы отправить ответ.