За сегодня опубликовано 18 новых материалов.
Инструкция новичку Путеводитель по форуму Прокси для Telegram Показать подсказки , это бомба!

Скачать Длинный уикэнд / The Long Weekend (2005) WEB-DL 1080p | D бесплатно через торрент

  • 90% материалов доступно к скачиванию после простой регистрации!
    Если же ты хочешь скачивать материалы без требования оставлять отзывы то получи группу "Новичок", 10 способов повышения описаны тут -> ссылка
  • К сожалению количество битых ссылок растет и мы уже не можем их оперативно восстанавливать поэтому просим помощи у каждого нашего пользователя.
    С сегодняшнего дня, за каждую восстановленную ссылку мы заплатим Вам.
    Подробнее тут -> ссылка
  • Перенесем твои заслуги с другого ресурса!
    Мы понимаем как сложно прокачивать аккаунты на форумах, вроде раскачал аккаунт, а тут появляется ресурс в 100 раз круче но тоже с системой прокачки и снова качать аккаунт...
    Предлагаем вам перенести Ваши заслуги на другом подобном ресурсе к нам.
    Подробности описаны тут -> ссылка
  • Вы можете получать по 2.5% с каждой покупки и продажи на маркете! Подробности в теме Партнёрская программа
Если Вы не хотите скачивать, Вы всегда можете посмотреть онлайн, просто нажмите кнопку ниже :

Открыть плеер

Torrent_Bot

Торрент-Бот
Бот форума
4 Окт 2016
125
17
20



Информация о фильме
Название: Длинный уикэнд
Оригинальное название: The Long Weekend
Год выхода: 2005
Жанр: комедия
Режиссер: Пэт Холден
В ролях: Крис Клейн, Брендан Фер, Чандра Уэст, Крэйг Фэйрбрасс, Пол Кэмпбелл, Коби Смолдерс

О фильме:
С тех пор, как Эду в руки попала видеокамера, он с ней не расставался. Сначала его называли чокнутым, но потом Эд нашел свое место в рекламной индустрии. Теперь он придумывает гениальную рекламу и приносит своему боссу миллионы. И все идет хорошо, пока Эд не расстается со своей девушкой. А нет подружки — нет секса. Нет секса — нет вдохновения. Нет вдохновения — нет работы!
На преодоление творческого кризиса у парня всего один уик-энд. За эти выходные Эд должен найти девушку и придумать нечто выдающееся. На помощь парню приходит его брат Купер, у которого никогда не было проблем ни с сексом, ни с вдохновением.



MPAA: R - Детям до 17 летобязательно присутствие родителей

Страна: США
Продолжительность: 01:30:18
Перевод: Профессиональный (полное дублирование)
Субтитры: Русские (Full), английские (SDH)

Файл
Кодек: x264
Качество: WEB-DL 1080p
Видео: AVC/H.264, 1912x1072, ~5338 Kbps
Аудио #1: AC3, 6 ch, 448 Kbps - Русский
Аудио #2: AC3, 6 ch, 384 Kbps - Английский

M/I
Общее
Уникальный идентификатор : 199585000226458633642164227120903068796 (0x9626AC3F27A63843B72DD6B060519C7C)
Полное имя : The Long Weekend 2005 WEB-DL 1080p-LQ.mkv
Формат : Matroska
Версия формата : Version 4
Размер файла : 3,97 Гбайт
Продолжительность : 1 ч. 30 м.
Общий поток : 6296 Кбит/сек
Программа кодирования : mkvmerge v6.9.1 ('Blue Panther') 32bit built on Apr 18 2014 18:15:44
Библиотека кодирования : libebml v1.3.0 + libmatroska v1.4.1

Видео
Идентификатор : 1
Формат : AVC
Формат/Информация : Advanced Video Codec
Профиль формата : [email protected]
Настройки формата : CABAC / 4 Ref Frames
Параметр CABAC формата : Да
Параметр RefFrames формата : 4 кадра
Идентификатор кодека : V_MPEG4/ISO/AVC
Продолжительность : 1 ч. 30 м.
Битрейт : 5338 Кбит/сек
Ширина : 1912 пикселей
Высота : 1072 пикселя
Соотношение сторон : 16:9
Режим частоты кадров : Постоянный
Частота кадров : 23,976 (24000/1001) кадра/сек
Цветовое пространство : YUV
Субдискретизация насыщенности : 4:2:0
Битовая глубина : 8 бит
Тип развёртки : Прогрессивная
Бит/(Пиксели*Кадры) : 0.109
Размер потока : 3,37 Гбайт (85%)
Язык : English
Default : Да
Forced : Нет
Цветовой диапазон : Limited
Основные цвета : BT.709
Характеристики трансфера : BT.709
Коэффициенты матрицы : BT.709

Аудио #1
Идентификатор : 2
Формат : AC-3
Формат/Информация : Audio Coding 3
Коммерческое название : Dolby Digital
Идентификатор кодека : A_AC3
Продолжительность : 1 ч. 30 м.
Вид битрейта : Постоянный
Битрейт : 448 Кбит/сек
Каналы : 6 каналов
Channel layout : L R C LFE Ls Rs
Частота : 48,0 КГц
Частота кадров : 31,250 кадров/сек (1536 SPF)
Битовая глубина : 16 бит
Метод сжатия : С потерями
Задержка видео : 1 с. 358 мс.
Размер потока : 289 Мбайт (7%)
Заголовок : дубляж
Язык : Russian
ServiceKind : Complete Main
Default : Да
Forced : Нет

Аудио #2
Идентификатор : 3
Формат : AC-3
Формат/Информация : Audio Coding 3
Коммерческое название : Dolby Digital
Идентификатор кодека : A_AC3
Продолжительность : 1 ч. 30 м.
Вид битрейта : Постоянный
Битрейт : 384 Кбит/сек
Каналы : 6 каналов
Channel layout : L R C LFE Ls Rs
Частота : 48,0 КГц
Частота кадров : 31,250 кадров/сек (1536 SPF)
Битовая глубина : 16 бит
Метод сжатия : С потерями
Задержка видео : -42 мс.
Размер потока : 248 Мбайт (6%)
Язык : English
ServiceKind : Complete Main
Default : Нет
Forced : Нет

Текст #1
Идентификатор : 4
Формат : UTF-8
Идентификатор кодека : S_TEXT/UTF8
Идентификатор кодека/Информация : UTF-8 Plain Text
Заголовок : SDH
Язык : English
Default : Нет
Forced : Нет

Текст #2
Идентификатор : 5
Формат : UTF-8
Идентификатор кодека : S_TEXT/UTF8
Идентификатор кодека/Информация : UTF-8 Plain Text
Заголовок : Full
Язык : Russian
Default : Нет
Forced : Нет

Меню
00:00:00.000 : :Глава 1
00:18:01.200 : :Глава 2
00:30:34.200 : :Глава 3
00:38:19.200 : :Глава 4
00:44:51.000 : :Глава 5
00:57:51.000 : :Глава 6
01:12:04.200 : :Глава 7
01:18:24.000 : :Глава 8
Скриншоты
 

Вложения

  • 20,8 KB Просмотры: 0
    Личеров 0
    Сидеров 0
    Файлов 1
    Объем 4 GB
Ваш e-mail не будет опубликован. Он потребуется для подтверждения Вашего поста.
Оформление текста Нажмите «Ввод», чтобы отправить ответ.

Привет!

Мы группа людей которые решили помочь другим в решении их проблем, а так же пользователям с поиском самых свежих и качественных инфопродуктов. За 4 с небольшим месяца мы создали этот форум на который заходят ежедневно тысячи человек и посещаемость постоянно растёт. Мы создали панель лицензирования для защиты PHP скриптов от воровства и SEO панель для мониторинга наших сайтов и выбора верной стратегии их развития. Мы надеемся что то что мы создали пригодится Вам и возможно Вы поможете нам развиваться и совершенствоваться вместе с Вами.

Статистика форума

Темы
347.658
Сообщения
373.558
Пользователи
28.925
Новый пользователь
Shinder

Приложения форума для iOS и Android


У ркн там нет власти ;)