За сегодня опубликовано 3 новых материалов.
Инструкция новичку Путеводитель по форуму Прокси для Telegram Показать подсказки , это бомба!

Скачать Цветок тысяча и одной ночи / Il fiore delle mille e una notte (1974) BDRip 720p by msltel | P, A бесплатно через торрент

  • Получай до 480 рублей за каждого приглашенного пользователя!
    представляем Вам очередное расширение партнерской программы, подробности описаны тут -> ссылка
  • 90% материалов доступно к скачиванию после простой регистрации!
    Если же ты хочешь скачивать материалы без требования оставлять отзывы то получи группу "Новичок", 10 способов повышения описаны тут -> ссылка
  • К сожалению количество битых ссылок растет и мы уже не можем их оперативно восстанавливать поэтому просим помощи у каждого нашего пользователя.
    С сегодняшнего дня, за каждую восстановленную ссылку мы заплатим Вам.
    Подробнее тут -> ссылка
  • Перенесем твои заслуги с другого ресурса!
    Мы понимаем как сложно прокачивать аккаунты на форумах, вроде раскачал аккаунт, а тут появляется ресурс в 100 раз круче но тоже с системой прокачки и снова качать аккаунт...
    Предлагаем вам перенести Ваши заслуги на другом подобном ресурсе к нам.
    Подробности описаны тут -> ссылка
  • Вы можете получать по 2.5% с каждой покупки и продажи на маркете! Подробности в теме Партнёрская программа
Если Вы не хотите скачивать, Вы всегда можете посмотреть онлайн, просто нажмите кнопку ниже :

Открыть плеер

Torrent_Bot

Торрент-Бот
Бот форума
4 Окт 2016
125
31
20



Название: Цветок тысяча и одной ночи
Оригинальное название: Il fiore delle mille e una notte
Год выпуска: 1974
Жанр:Фэнтези, драма, комедия
Выпущено: Италия, Франция, Les Productions Artistes Associеs, Produzioni Europee Associati (PEA)
Режиссер: Пьер Паоло Пазолини
В ролях: Нинетто Даволи, Франко Читти, Тесса Буше, Маргарет Клементи, Инес Пеллегрини, Франко Мерли, Франкелис Ноэль, Али Абдулла, Кристиан Алигни, Жанна Гоффин Матье

О фильме: Нур-эд-Дин, ищущий свою возлюбленную Зумурруд; рабыня, ставшая царицей в огромном восточном городе; кочевники и наложницы; принцы и джинны - вот герои сказок Шехерезады и фильма Пазолини. Как прокалённый жарким солнцем воздух пустыни рождает миражи, так и гений режиссёра воссоздает зыбкую реальность идиллического мира волшебства и секса, исчезающую с последними кадрами его шедевра...

Качество: BDRip 720p
Видео: MPEG-4 AVC, 6077 Kбит/с, 1280х690
Аудио: Русский, итальянский (АС3, 2 ch, 192 Кбит/с)
Размер: 6.16 ГБ
Продолжительность: 02:09:56
Перевод: Профессиональный многоголосый (Film Prestige), авторский (Сергей Кузнецов)
Субтитры: Русские, английские

Исходник: posodobl (Кинозал)




Награды
Каннский кинофестиваль, 1974 год
Победитель (1):
Большой приз жюри

Номинации (1):
Золотая пальмовая ветвь
MediaInfo + Лог х264
Общее
Уникальный идентификатор : 215737024845535251272157549007671365717 (0xA24D708B5971998FB234C3B53D179055)
Полное имя : D:VideoCvetok tysjacha i odnoj nochi.1974.x264.BDRip.720p.mkv
Формат : Matroska
Версия формата : Version 4 / Version 2
Размер файла : 6,16 Гбайт
Продолжительность : 2 ч. 9 м.
Общий поток : 6788 Кбит/сек
Дата кодирования : UTC 2014-04-15 08:54:04
Программа кодирования : mkvmerge v6.8.0 ('Theme for Great Cities') 64bit built on Mar 2 2014 21:34:26
Библиотека кодирования : libebml v1.3.0 + libmatroska v1.4.1

Видео
Идентификатор : 1
Формат : AVC
Формат/Информация : Advanced Video Codec
Профиль формата : [email protected]
Параметр CABAC формата : Да
Параметр ReFrames формата : 9 кадров
Идентификатор кодека : V_MPEG4/ISO/AVC
Продолжительность : 2 ч. 9 м.
Битрейт : 6077 Кбит/сек
Ширина : 1280 пикселей
Высота : 690 пикселей
Соотношение сторон : 1,85:1
Режим частоты кадров : Постоянный
Частота кадров : 23,976 кадра/сек
Цветовое пространство : YUV
Субдискретизация насыщенности : 4:2:0
Битовая глубина : 8 бит
Тип развёртки : Прогрессивная
Бит/(Пиксели*Кадры) : 0.287
Размер потока : 5,52 Гбайт (90%)
Заголовок : BDRip -- STarankov
Библиотека кодирования : x264 core 138 r2358 9e941d1
Настройки программы : cabac=1 / ref=9 / deblock=1:-1:-1 / analyse=0x3:0x113 / me=umh / subme=10 / psy=1 / psy_rd=1.00:0.15 / mixed_ref=1 / me_range=32 / chroma_me=1 / trellis=2 / 8x8dct=1 / cqm=0 / deadzone=21,11 / fast_pskip=0 / chroma_qp_offset=-3 / threads=6 / lookahead_threads=1 / sliced_threads=0 / nr=0 / decimate=1 / interlaced=0 / bluray_compat=0 / constrained_intra=0 / bframes=8 / b_pyramid=2 / b_adapt=2 / b_bias=0 / direct=1 / weightb=1 / open_gop=0 / weightp=2 / keyint=230 / keyint_min=23 / scenecut=40 / intra_refresh=0 / rc_lookahead=40 / rc=crf / mbtree=0 / crf=19.2 / qcomp=0.60 / qpmin=0 / qpmax=69 / qpstep=4 / vbv_maxrate=40000 / vbv_bufsize=50000 / crf_max=0.0 / nal_hrd=none / ip_ratio=1.40 / pb_ratio=1.30 / aq=1:1.00
Язык : Italian
Default : Да
Forced : Нет

Аудио #1
Идентификатор : 2
Формат : AC-3
Формат/Информация : Audio Coding 3
Расширение режима : CM (complete main)
Параметр Endianness формата : Big
Идентификатор кодека : A_AC3
Продолжительность : 2 ч. 9 м.
Вид битрейта : Постоянный
Битрейт : 192 Кбит/сек
Каналы : 2 канала
Расположение каналов : Front: L R
Частота : 48,0 КГц
Битовая глубина : 16 бит
Метод сжатия : С потерями
Размер потока : 178 Мбайт (3%)
Заголовок : MVO (Film Prestige)
Язык : Russian
Default : Да
Forced : Нет

Аудио #2
Идентификатор : 3
Формат : AC-3
Формат/Информация : Audio Coding 3
Расширение режима : CM (complete main)
Параметр Endianness формата : Big
Идентификатор кодека : A_AC3
Продолжительность : 2 ч. 9 м.
Вид битрейта : Постоянный
Битрейт : 192 Кбит/сек
Каналы : 2 канала
Расположение каналов : Front: L R
Частота : 48,0 КГц
Битовая глубина : 16 бит
Метод сжатия : С потерями
Размер потока : 178 Мбайт (3%)
Заголовок : AVO (Сергей Кузнецов)
Язык : Russian
Default : Нет
Forced : Нет

Аудио #3
Идентификатор : 4
Формат : AC-3
Формат/Информация : Audio Coding 3
Расширение режима : CM (complete main)
Параметр Endianness формата : Big
Идентификатор кодека : A_AC3
Продолжительность : 2 ч. 9 м.
Вид битрейта : Постоянный
Битрейт : 192 Кбит/сек
Каналы : 2 канала
Расположение каналов : Front: L R
Частота : 48,0 КГц
Битовая глубина : 16 бит
Метод сжатия : С потерями
Размер потока : 178 Мбайт (3%)
Заголовок : Original
Язык : Italian
Default : Нет
Forced : Нет

Текст #1
Идентификатор : 5
Формат : UTF-8
Идентификатор кодека : S_TEXT/UTF8
Идентификатор кодека/Информация : UTF-8 Plain Text
Заголовок : русский
Язык : Russian
Default : Нет
Forced : Нет

Текст #2
Идентификатор : 6
Формат : UTF-8
Идентификатор кодека : S_TEXT/UTF8
Идентификатор кодека/Информация : UTF-8 Plain Text
Заголовок : английский
Default : Нет
Forced : Нет

---[Information] [15.04.2014 0:11:48] raw [info]: 1280x690p 1:1 @ 24000/1001 fps (cfr)
---[Information] [15.04.2014 0:11:48] x264 [info]: using SAR=1/1
---[Information] [15.04.2014 0:11:48] x264 [info]: using cpu capabilities: MMX2 SSE2Fast SSSE3 SSE4.2
---[Information] [15.04.2014 0:11:48] x264 [info]: profile High, level 4.1
---[Information] [15.04.2014 10:02:34] x264 [info]: frame I:1528 Avg QP:18.96 size:116292
---[Information] [15.04.2014 10:02:34] x264 [info]: frame P:32972 Avg QP:20.02 size: 59973
---[Information] [15.04.2014 10:02:34] x264 [info]: frame B:152436 Avg QP:21.93 size: 25564
---[Information] [15.04.2014 10:02:34] x264 [info]: consecutive B-frames: 1.1% 0.7% 2.3% 10.8% 19.9% 31.3% 11.8% 13.6% 8.4%
---[Information] [15.04.2014 10:02:34] x264 [info]: mb I I16..4: 4.9% 84.1% 11.0%
---[Information] [15.04.2014 10:02:34] x264 [info]: mb P I16..4: 0.3% 21.2% 1.2% P16..4: 35.5% 28.3% 13.1% 0.0% 0.0% skip: 0.4%
---[Information] [15.04.2014 10:02:34] x264 [info]: mb B I16..4: 0.0% 2.6% 0.1% B16..8: 44.8% 14.8% 4.2% direct:10.2% skip:23.3% L0:45.4% L1:46.1% BI: 8.5%
---[Information] [15.04.2014 10:02:34] x264 [info]: 8x8 transform intra:92.9% inter:61.4%
---[Information] [15.04.2014 10:02:34] x264 [info]: coded y,uvDC,uvAC intra: 97.5% 83.4% 56.5% inter: 47.4% 28.0% 2.9%
---[Information] [15.04.2014 10:02:34] x264 [info]: i16 v,h,dc,p: 9% 7% 37% 47%
---[Information] [15.04.2014 10:02:34] x264 [info]: i8 v,h,dc,ddl,ddr,vr,hd,vl,hu: 9% 8% 12% 10% 14% 11% 13% 11% 13%
---[Information] [15.04.2014 10:02:34] x264 [info]: i4 v,h,dc,ddl,ddr,vr,hd,vl,hu: 30% 6% 3% 7% 12% 11% 12% 9% 11%
---[Information] [15.04.2014 10:02:34] x264 [info]: i8c dc,h,v,p: 46% 23% 17% 14%
---[Information] [15.04.2014 10:02:34] x264 [info]: Weighted P-Frames: Y:7.4% UV:2.7%
---[Information] [15.04.2014 10:02:34] x264 [info]: ref P L0: 36.4% 11.9% 21.9% 7.1% 7.6% 4.5% 5.1% 2.4% 2.9% 0.2% 0.0%
---[Information] [15.04.2014 10:02:34] x264 [info]: ref B L0: 71.5% 12.1% 6.0% 3.6% 2.6% 2.4% 1.2% 0.5%
---[Information] [15.04.2014 10:02:34] x264 [info]: ref B L1: 93.7% 6.3%
---[Information] [15.04.2014 10:02:34] x264 [info]: kb/s:6209.76
---[Information] [15.04.2014 10:02:34] encoded 186936 frames, 5.27 fps, 6209.76 kb/s
--[Information] [15.04.2014 10:02:34] Final statistics
---[Information] [15.04.2014 10:02:34] Constant Quality Mode: Quality 19 computed...
---[Information] [15.04.2014 10:02:34] Video Bitrate Obtained (approximate): 6211 kbit/s
--[Information] [15.04.2014 10:02:34] MediaInfo
---[Information] File: D:RipCvetok tysjacha i odnoj nochi.1974.x264.BDRipCvetok tysjacha i odnoj nochi.1974.x264.BDRip.720p.mkv
Скриншоты

 

Вложения

  • 31,8 KB Просмотры: 0
    Личеров 0
    Сидеров 0
    Файлов 1
    Объем 6,2 GB
Ваш e-mail не будет опубликован. Он потребуется для подтверждения Вашего поста.
Оформление текста Нажмите «Ввод», чтобы отправить ответ.