За сегодня опубликовано 8 новых материалов.
Инструкция новичку Путеводитель по форуму Прокси для Telegram Показать подсказки , это бомба!

Скачать Цвет граната / Саят-Нова (1968) BDRip 720p | P1 бесплатно через торрент

  • Получай до 480 рублей за каждого приглашенного пользователя!
    представляем Вам очередное расширение партнерской программы, подробности описаны тут -> ссылка
  • 90% материалов доступно к скачиванию после простой регистрации!
    Если же ты хочешь скачивать материалы без требования оставлять отзывы то получи группу "Новичок", 10 способов повышения описаны тут -> ссылка
  • К сожалению количество битых ссылок растет и мы уже не можем их оперативно восстанавливать поэтому просим помощи у каждого нашего пользователя.
    С сегодняшнего дня, за каждую восстановленную ссылку мы заплатим Вам.
    Подробнее тут -> ссылка
  • Перенесем твои заслуги с другого ресурса!
    Мы понимаем как сложно прокачивать аккаунты на форумах, вроде раскачал аккаунт, а тут появляется ресурс в 100 раз круче но тоже с системой прокачки и снова качать аккаунт...
    Предлагаем вам перенести Ваши заслуги на другом подобном ресурсе к нам.
    Подробности описаны тут -> ссылка
  • Вы можете получать по 2.5% с каждой покупки и продажи на маркете! Подробности в теме Партнёрская программа
Если Вы не хотите скачивать, Вы всегда можете посмотреть онлайн, просто нажмите кнопку ниже :

Открыть плеер

Torrent_Bot

Торрент-Бот
Бот форума
4 Окт 2016
125
31
20
Информация о фильме
Название: Цвет граната / Саят-Нова
Год выхода: 1968
Жанр: драма, биография, кинопоэма, притча
Режиссер: Сергей Параджанов
В ролях: Софико Чиаурели, Мелкоп Алексаян, Вилен Галстян, Георгий Гегечкори, Спартак Багашвили, Медея Джапаридзе, Ованес Минасян, Юрий Амирян, И. Бабаян, Медея Бибилейшвили

Опписание: В фильме, состоящем из нескольких миниатюр, сделана попытка показать духовный мир средневекового армянского поэта Саят-Новы писавшего на армянском, грузинском и азербайджанском языках, историю его любви, отношение поэта к религии, светской власти, народу. При отсутствии обычного литературного монолога все решения автора фильма лежат в чисто изобразительной сфере.

845c63fa609cb9e03dc3ff85095aba77.gife382fe9d61c79d1b7a4e1ff790144c97.gif

Страна: СССР
Продолжительность: 01:19:45
Перевод: Студийный (одноголосый закадровый) ТВ Культура
Субтитры: русские, английский, английские комментарий
Оригинальная аудиодорожка: армянский, грузинский, азербайджанский

Файл
Качество: BDRip 720p
Видео: 984x720, 4:3, 8400 kbps, 24.000 fps
Аудио 1: Русский / ТВ Культура, AC3, 2.0 (моно), 48 kHz, 256 kbps
Аудио 2: Армянский, грузинский, азербайджанский / AC3, 2.0 (моно), 48kHz, 256 kbps

Скриншоты
41c8a4f8a515d83702c277fad6e51f64.png6eec02ee6d878aa18e4fad610ca3ce1e.png20e8502c2097b7854d5c55ae7a530fd5.png
MediaInfo
General
Unique ID : 226766084359584287214484037665568911484 (0xAA998F294D1C7AA8B480691D5D1CF07C)
Complete name : Nran Guyne.Parajanov's cut.720p.mkv
Format : Matroska
Format version : Version 4 / Version 2
File size : 5.07 GiB
Duration : 1h 19mn
Overall bit rate : 9 094 Kbps
Encoded date : UTC 2018-03-22 11:08:24
Writing application : mkvmerge v6.8.0 ('Theme for Great Cities') 64bit built on Mar 2 2014 21:34:26
Writing library : libebml v1.3.0 + libmatroska v1.4.1

Video
ID : 1
Format : AVC
Format/Info : Advanced Video Codec
Format profile : [email protected]
Format settings, CABAC : Yes
Format settings, ReFrames : 10 frames
Codec ID : V_MPEG4/ISO/AVC
Duration : 1h 19mn
Bit rate : 8 401 Kbps
Width : 984 pixels
Height : 720 pixels
Display aspect ratio : 4:3
Frame rate mode : Constant
Frame rate : 24.000 fps
Color space : YUV
Chroma subsampling : 4:2:0
Bit depth : 8 bits
Scan type : Progressive
Bits/(Pixel*Frame) : 0.494
Stream size : 4.68 GiB (92%)
Writing library : x264 core 155 r2901M 7d0ff22
Encoding settings : cabac=1 / ref=10 / deblock=1:-2:-2 / analyse=0x3:0x133 / me=umh / subme=11 / psy=1 / psy_rd=1.05:0.25 / mixed_ref=1 / me_range=32 / chroma_me=1 / trellis=2 / 8x8dct=1 / cqm=0 / deadzone=6,6 / fast_pskip=0 / chroma_qp_offset=-4 / threads=9 / lookahead_threads=2 / sliced_threads=0 / nr=0 / decimate=0 / interlaced=0 / bluray_compat=0 / constrained_intra=0 / bframes=10 / b_pyramid=2 / b_adapt=2 / b_bias=0 / direct=3 / weightb=1 / open_gop=0 / weightp=2 / keyint=240 / keyint_min=24 / scenecut=40 / intra_refresh=0 / rc_lookahead=0 / rc=crf / mbtree=0 / crf=19.0 / qcomp=0.80 / qpmin=3 / qpmax=69 / qpstep=4 / vbv_maxrate=10000 / vbv_bufsize=7142 / crf_max=50.0 / nal_hrd=none / filler=0 / ip_ratio=1.25 / pb_ratio=1.15 / aq=2:0.50
Language : English
Default : Yes
Forced : No
Color range : Limited
Color primaries : BT.709
Transfer characteristics : BT.709
Matrix coefficients : BT.709

Audio #1
ID : 2
Format : AC-3
Format/Info : Audio Coding 3
Mode extension : CM (complete main)
Format settings, Endianness : Big
Codec ID : A_AC3
Duration : 1h 19mn
Bit rate mode : Constant
Bit rate : 256 Kbps
Channel(s) : 2 channels
Channel positions : Front: L R
Sampling rate : 48.0 KHz
Frame rate : 31.250 fps (1536 spf)
Compression mode : Lossy
Stream size : 146 MiB (3%)
Title : KulturaTV
Language : Russian
Default : Yes
Forced : No

Audio #2
ID : 3
Format : AC-3
Format/Info : Audio Coding 3
Mode extension : CM (complete main)
Format settings, Endianness : Big
Codec ID : A_AC3
Duration : 1h 19mn
Bit rate mode : Constant
Bit rate : 256 Kbps
Channel(s) : 2 channels
Channel positions : Front: L R
Sampling rate : 48.0 KHz
Frame rate : 31.250 fps (1536 spf)
Compression mode : Lossy
Stream size : 146 MiB (3%)
Title : Original
Language : Armenian
Default : No
Forced : No

Text #1
ID : 4
Format : UTF-8
Codec ID : S_TEXT/UTF8
Codec ID/Info : UTF-8 Plain Text
Language : Russian
Default : No
Forced : No

Text #2
ID : 5
Format : UTF-8
Codec ID : S_TEXT/UTF8
Codec ID/Info : UTF-8 Plain Text
Language : English
Default : No
Forced : No

Text #3
ID : 6
Format : UTF-8
Codec ID : S_TEXT/UTF8
Codec ID/Info : UTF-8 Plain Text
Title : Comments
Language : English
Default : No
Forced : No

Menu
00:00:00.000 : en:Chapter 01
00:03:15.250 : en:Chapter 02
00:06:21.166 : en:Chapter 03
00:09:24.583 : en:Chapter 04
00:16:59.250 : en:Chapter 05
00:24:09.625 : en:Chapter 06
00:27:57.250 : en:Chapter 07
00:30:25.125 : en:Chapter 08
00:35:04.125 : en:Chapter 09
00:42:43.791 : en:Chapter 10
00:46:33.166 : en:Chapter 11
00:52:38.666 : en:Chapter 12
00:58:46.791 : en:Chapter 13
01:07:16.791 : en:Chapter 14
01:13:08.250 : en:Chapter 15
01:19:15.958 : en:Chapter 16
 

Вложения

Ваш e-mail не будет опубликован. Он потребуется для подтверждения Вашего поста.
Оформление текста Нажмите «Ввод», чтобы отправить ответ.