Инструкция новичку Путеводитель по форуму Прокси для Telegram Показать подсказки , это бомба!

Скачать Чёрный замок Ольшанский (1983) SATRip-AVC от KORSAR бесплатно через торрент

Если Вы не хотите скачивать, Вы всегда можете посмотреть онлайн, просто нажмите кнопку ниже :

Открыть плеер

Torrent_Bot

Торрент-Бот
Бот форума
4 Окт 2016
119
13


Чёрный замок Ольшанский





Год выхода: 1983
Страна: СССР
Жанр:Исторический, детектив, мистика, экранизация
Продолжительность: 01:03:47 + 01:03:29
Перевод: Не требуется
Режиссер: Михаил Пташук
В ролях: Виктор Евграфов, Риманте Крилавичюте, Эдуард Марцевич, Леонид Марков, Геннадий Гарбук, Стасис Петронайтис,
Юрий Катин-Ярцев, Генрикас Кураускас, Игорь Васильев, Михаил Матвеев, Здислав Стомма, Пётр Юрченков (ст.), Юрий Ступаков, Иван Мацкевич,
Александр Рахленко, Виктор Лебедев, Нина Розанцева

О фильме: По одноименному роману Владимира Короткевича.История уходит корнями в глубокую древность 18 века.
В те далекие смутные времена князь Ольшанский крадет казну и драгоценности повстанцев, но таинственным образом исчезает, оставив манускрипт, в котором указано местонахождение сокровищ.
В наше время последний потомок князей Ольшанских разыскивает этот манускрипт, который случайно попал в руки одного любителя старины.



Кодек: х264
Качество: SATRip-AVC
Видео: MPEG-4 AVC, 1750 Кбит/с, [email protected], 25 fps
Аудио: Русский, AC-3, 48.0 KHz, 2 ch, 192 Кбит/с

Скриншоты
Инфо файл
x264 [info]: frame I:438 Avg QP:15.01 size: 52911
x264 [info]: frame P:20638 Avg QP:17.85 size: 20970
x264 [info]: frame B:74608 Avg QP:18.82 size: 5110

Общее
Уникальный идентификатор : 229820928475507664293263017746401893650 (0xACE5E69AD093FD8F993B6437875C9D12)
Полное имя : H:СССРЧёрный замок Ольшанский_1983-SATRip-AVC_KORSAR1 Серия.mkv
Формат : Matroska
Версия формата : Version 2
Размер файла : 887 Мбайт
Продолжительность : 1 ч. 3 м.
Общий поток : 1944 Кбит/сек
Дата кодирования : UTC 2018-12-04 13:33:28
Программа кодирования : mkvmerge v5.8.0 ('No Sleep / Pillow') built on Sep 2 2012 15:37:04
Библиотека кодирования : libebml v1.2.3 + libmatroska v1.3.0

Видео
Идентификатор : 1
Формат : AVC
Формат/Информация : Advanced Video Codec
Профиль формата : [email protected]
Настройки формата : CABAC / 15 Ref Frames
Параметр CABAC формата : Да
Параметр RefFrames формата : 15 кадров
Идентификатор кодека : V_MPEG4/ISO/AVC
Продолжительность : 1 ч. 3 м.
Битрейт : 1750 Кбит/сек
Ширина : 538 пикселей
Высота : 572 пикселя
Соотношение сторон : 4:3
Соотношение сторон в оригинале : 4:3
Режим частоты кадров : Постоянный
Частота кадров : 25,000 кадров/сек
Цветовое пространство : YUV
Субдискретизация насыщенности : 4:2:0
Битовая глубина : 8 бит
Тип развёртки : Прогрессивная
Бит/(Пиксели*Кадры) : 0.227
Размер потока : 782 Мбайт (88%)
Библиотека кодирования : x264 core 152 r2851kMod ba24899
Настройки программы : cabac=1 / ref=15 / deblock=1:-2:-1 / analyse=0x3:0x133 / me=umh / subme=11 / psy=1 / fade_compensate=0.00 / psy_rd=1.05:0.10 / mixed_ref=1 / me_range=48 / chroma_me=1 / trellis=2 / 8x8dct=1 / cqm=0 / deadzone=21,11 / fast_pskip=0 / chroma_qp_offset=-3 / threads=12 / lookahead_threads=3 / sliced_threads=0 / nr=0 / decimate=0 / interlaced=0 / bluray_compat=0 / constrained_intra=0 / bframes=11 / b_pyramid=2 / b_adapt=2 / b_bias=0 / direct=3 / weightb=1 / open_gop=0 / weightp=2 / keyint=250 / keyint_min=25 / scenecut=40 / intra_refresh=0 / rc_lookahead=40 / rc=2pass / mbtree=0 / bitrate=1750 / ratetol=1.0 / qcomp=0.60 / qpmin=0 / qpmax=39 / qpstep=4 / cplxblur=20.0 / qblur=0.5 / vbv_maxrate=50000 / vbv_bufsize=62500 / nal_hrd=none / filler=0 / ip_ratio=1.25 / pb_ratio=1.30 / aq=1:1.00
Язык : English
Default : Да
Forced : Нет
Цветовой диапазон : Limited
Основные цвета : BT.601 PAL
Характеристики трансфера : BT.470 System B, BT.470 System G
Коэффициенты матрицы : BT.470 System B, BT.470 System G

Аудио
Идентификатор : 2
Формат : AC-3
Формат/Информация : Audio Coding 3
Параметр Endianness формата : Big
Идентификатор кодека : A_AC3
Продолжительность : 1 ч. 3 м.
Вид битрейта : Постоянный
Битрейт : 192 Кбит/сек
Каналы : 2 канала
Расположение каналов : Front: L R
Частота : 48,0 КГц
Частота кадров : 31,250 кадров/сек (1536 SPF)
Битовая глубина : 16 бит
Метод сжатия : С потерями
Размер потока : 87,6 Мбайт (10%)
Язык : Russian
Default : Да
Forced : Нет
 

Вложения

  • 18,3 KB Просмотры: 0
    Личеров 0
    Сидеров 0
    Файлов 2
    Объем 1,7 GB
Ваш e-mail не будет опубликован. Он потребуется для подтверждения Вашего поста.
Оформление текста Нажмите «Ввод», чтобы отправить ответ.

Привет!

Мы группа людей которые решили помочь другим в решении их проблем, а так же пользователям с поиском самых свежих и качественных инфопродуктов. За 4 с небольшим месяца мы создали этот форум на который заходят ежедневно тысячи человек и посещаемость постоянно растёт. Мы создали панель лицензирования для защиты PHP скриптов от воровства и SEO панель для мониторинга наших сайтов и выбора верной стратегии их развития. Мы надеемся что то что мы создали пригодится Вам и возможно Вы поможете нам развиваться и совершенствоваться вместе с Вами.

Статистика форума

Темы
338.135
Сообщения
360.814
Пользователи
25.749
Новый пользователь
chydik4

Приложения форума для iOS и Android


У ркн там нет власти ;)
Гостевуха
Помощь Пользователи
  • K Chat Bot:
    Гость kkifkaa присоединился к комнате.
  • K (Гость) kkifkaa:
    Всем привет!
    Цитата
  • K (Гость) kkifkaa:
    mizaider тут есть?
    Цитата
  • K Chat Bot:
    Гость kkifkaa присоединился к комнате.
  • K (Гость) kkifkaa:
    Здравствуйте уважаемые члены форума. Подскажите пож-та, что можно сделать если я был заблокирован якобы за: «Вы были заблокированы по следующей причине: Копирование материалов на другие ресурсы». Самое страшное, то что тебя обвиняют и не дают возможность пообщаться и разобраться в причинах. Кстати в такой ситуации может быть каждый из нас. Вот так стараешься размещаешь тут материал, а тебя без разбирательств в бан. И нет возможности обратится в тех поддержку т.к. твой аккаут заблокирован. Подскажите пож-та, как можно связаться с администрацией, чтобы была проведена проверка? Сейчас я новичок и как раз в этот день для нас заливал на форум новые курсы (один залил, второй не успел). Я сначала подумал, что какой-то запрещений материал разместил, а потом понял, что меня обвинили в том, что я не делал.
    Цитата
  • K (Гость) kkifkaa:
    mizaider ты здесь помоги пожалуйста!
    Цитата
  • mizaider @ mizaider:
    Вопрос решен.
    Цитата
  • goodness @ goodness:
    Добрый вечер уважаемые форумчане!)
    Цитата
  • goodness @ goodness:
    Вопрос к администрации: Имеется одна точка доступа wifi на квартиру, вашим форумом пользуюсь пока что только я, но хотел бы зарегистрировать и свою девушку,
    Цитата
  • goodness @ goodness:
    система нас не забанит из-за того что мы с одной точки доступа но с разных устройств?
    Цитата
  • mizaider @ mizaider:
    Не забанит
    Цитата
  • Captain @ Captain:
    Батя в здание
    Цитата
  • 13SASHA13 @ 13SASHA13:
    Цитата
  • Uggi Chat Bot:
    Uggi покинул(а) комнату.
  • M Chat Bot:
    mr_robot_i2p покинул(а) комнату.
  • Captain @ Captain:
    Батя в здание
    Цитата
  • J Chat Bot:
    joker567 покинул(а) комнату.
  • Z Chat Bot:
    ztmm покинул(а) комнату.
    Z Chat Bot: ztmm покинул(а) комнату.