За сегодня опубликовано 10 новых материалов.
Инструкция новичку Путеводитель по форуму Прокси для Telegram Показать подсказки , это бомба!

Скачать Чертова дюжина / The Filthy Thirteen / D-Day Assassins (2019) WEB-DL 1080p от ExKinoRay | HDRezka Studio бесплатно через торрент

  • Получай до 480 рублей за каждого приглашенного пользователя!
    представляем Вам очередное расширение партнерской программы, подробности описаны тут -> ссылка
  • 90% материалов доступно к скачиванию после простой регистрации!
    Если же ты хочешь скачивать материалы без требования оставлять отзывы то получи группу "Новичок", 10 способов повышения описаны тут -> ссылка
  • К сожалению количество битых ссылок растет и мы уже не можем их оперативно восстанавливать поэтому просим помощи у каждого нашего пользователя.
    С сегодняшнего дня, за каждую восстановленную ссылку мы заплатим Вам.
    Подробнее тут -> ссылка
  • Перенесем твои заслуги с другого ресурса!
    Мы понимаем как сложно прокачивать аккаунты на форумах, вроде раскачал аккаунт, а тут появляется ресурс в 100 раз круче но тоже с системой прокачки и снова качать аккаунт...
    Предлагаем вам перенести Ваши заслуги на другом подобном ресурсе к нам.
    Подробности описаны тут -> ссылка
  • Вы можете получать по 2.5% с каждой покупки и продажи на маркете! Подробности в теме Партнёрская программа
Если Вы не хотите скачивать, Вы всегда можете посмотреть онлайн, просто нажмите кнопку ниже :

Открыть плеер

Torrent_Bot

Торрент-Бот
Бот форума
4 Окт 2016
125
32
20



Название: Чертова дюжина (Убийцы Дня Д)
Оригинальное название: The Filthy Thirteen (D-Day Assassins)
Год выпуска: 2019
Жанр:Военный, реальные события
Режиссер: Эндрю Джонс
В ролях: Киаран Дейвис, Деннис Фаррин, Вики Гловер, Дерек Нельсон, Марк Гомер, Эрик Хейден, Патрик О'Доннелл, Том Уорд-Томас, Ли Бэйн, Аарон Джеффкот

Описание: В 1944 году команда американских солдат, известная как "Чёртова дюжина" становится всё большей проблемой для командования. Они не исполняют приказы, редко моются и часто ходят в самоволки. Однако, бунтарям выпадает возможность искупить свои грехи. Они становятся первым подразделением, которое десантируется за немецкой линией фронта во время вторжения в Нормандию. Их цель - передвигаться по вражеской территории и уничтожать каналы поставок и пути отступления. Эта жестокая и захватывающая история основана на реальных событиях.



Выпущено: Великобритания, North Bank Entertainment
Продолжительность: 01:17:03
Перевод: Профессиональный (многоголосый, закадровый) | HDRezka Studio
Субтитры: Английские


БЕЗ КАКОЙ-ЛИБО РЕКЛАМЫ!

Формат: MKV
Качество: WEB-DL 1080p
Видео: MPEG-4 AVC, 1920x804 (2.40:1), 25.000 fps, 4469 Kbps, 0.116 bit/pixel
Аудио 1: 48 kHz, AC3, 2.0, 384 Kbps | MVO | RUS |
Аудио 2: 48 kHz, AC3, 5.1, 384 Kbps | Оригинал | ENG |


ОтчетМедиаИнфо
General
Unique ID : 186334349308127455377554306987877557888 (0x8C2EB0B780EEB2728222D8B434996680)
Complete name : F:The Filthy Thirteen.2019.MVO.WEB-DL.1080p.ExKinoRay.mkv
Format : Matroska
Format version : Version 2
File size : 2.88 GiB
Duration : 1 h 17 min
Overall bit rate : 5 343 kb/s
Movie name : The Filthy Thirteen 2019 from ExKinoRay
Encoded date : UTC 2019-06-05 00:09:28
Writing application : mkvmerge v5.6.0 ('Kenya Kane') built on May 27 2012 16:44:04
Writing library : libebml v1.2.3 + libmatroska v1.3.0

Video
ID : 1
Format : AVC
Format/Info : Advanced Video Codec
Format profile : [email protected]
Format settings, CABAC : Yes
Format settings, ReFrames : 5 frames
Codec ID : V_MPEG4/ISO/AVC
Duration : 1 h 17 min
Bit rate : 4 469 kb/s
Width : 1 920 pixels
Height : 804 pixels
Display aspect ratio : 2.40:1
Frame rate mode : Constant
Frame rate : 25.000 FPS
Color space : YUV
Chroma subsampling : 4:2:0
Bit depth : 8 bits
Scan type : Progressive
Bits/(Pixel*Frame) : 0.116
Stream size : 2.41 GiB (84%)
Language : English
Default : Yes
Forced : No
Color range : Limited
Color primaries : BT.709
Transfer characteristics : BT.709
Matrix coefficients : BT.709

Audio #1
ID : 2
Format : AC-3
Format/Info : Audio Coding 3
Mode extension : CM (complete main)
Format settings, Endianness : Big
Codec ID : A_AC3
Duration : 1 h 17 min
Bit rate mode : Constant
Bit rate : 384 kb/s
Channel(s) : 2 channels
Channel positions : Front: L R
Sampling rate : 48.0 kHz
Frame rate : 31.250 FPS (1536 spf)
Compression mode : Lossy
Stream size : 212 MiB (7%)
Title : MVO (HDrezka Studio)
Language : Russian
Default : Yes
Forced : No

Audio #2
ID : 3
Format : AC-3
Format/Info : Audio Coding 3
Mode extension : CM (complete main)
Format settings, Endianness : Big
Codec ID : A_AC3
Duration : 1 h 17 min
Bit rate mode : Constant
Bit rate : 384 kb/s
Channel(s) : 6 channels
Channel positions : Front: L C R, Side: L R, LFE
Sampling rate : 48.0 kHz
Frame rate : 31.250 FPS (1536 spf)
Compression mode : Lossy
Stream size : 212 MiB (7%)
Language : English
Default : No
Forced : No

Text
ID : 4
Format : UTF-8
Codec ID : S_TEXT/UTF8
Codec ID/Info : UTF-8 Plain Text
Language : English
Default : No
Forced : No

Menu
00:00:00.000 : en:Chapter 1
00:09:33.000 : en:Chapter 2
00:21:01.000 : en:Chapter 3
00:27:11.000 : en:Chapter 4
00:39:57.000 : en:Chapter 5
00:49:06.000 : en:Chapter 6
01:00:15.000 : en:Chapter 7
01:09:31.000 : en:Chapter 8




Релиз от:

Автор релиза:
 

Вложения

  • 15,4 KB Просмотры: 0
    Личеров 0
    Сидеров 0
    Файлов 1
    Объем 2,9 GB
Ваш e-mail не будет опубликован. Он потребуется для подтверждения Вашего поста.
Оформление текста Нажмите «Ввод», чтобы отправить ответ.