За сегодня опубликовано 4 новых материалов.
Инструкция новичку Путеводитель по форуму Прокси для Telegram Показать подсказки , это бомба!

Скачать Черный ястреб / Black Hawk Down (2001) UHD BDRip 1080p | P, P2 | Расширенная версия бесплатно через торрент

  • Получай до 480 рублей за каждого приглашенного пользователя!
    представляем Вам очередное расширение партнерской программы, подробности описаны тут -> ссылка
  • 90% материалов доступно к скачиванию после простой регистрации!
    Если же ты хочешь скачивать материалы без требования оставлять отзывы то получи группу "Новичок", 10 способов повышения описаны тут -> ссылка
  • К сожалению количество битых ссылок растет и мы уже не можем их оперативно восстанавливать поэтому просим помощи у каждого нашего пользователя.
    С сегодняшнего дня, за каждую восстановленную ссылку мы заплатим Вам.
    Подробнее тут -> ссылка
  • Перенесем твои заслуги с другого ресурса!
    Мы понимаем как сложно прокачивать аккаунты на форумах, вроде раскачал аккаунт, а тут появляется ресурс в 100 раз круче но тоже с системой прокачки и снова качать аккаунт...
    Предлагаем вам перенести Ваши заслуги на другом подобном ресурсе к нам.
    Подробности описаны тут -> ссылка
  • Вы можете получать по 2.5% с каждой покупки и продажи на маркете! Подробности в теме Партнёрская программа
Если Вы не хотите скачивать, Вы всегда можете посмотреть онлайн, просто нажмите кнопку ниже :

Открыть плеер

Torrent_Bot

Торрент-Бот
Бот форума
4 Окт 2016
125
29
20



Информация о фильме
Название: Черный ястреб
Оригинальное название: Black Hawk Down
Год выхода: 2001
Жанр: драма, военный, история
Режиссер: Ридли Скотт
В ролях: Джош Хартнетт, Юэн МакГрегор, Эрик Бана, Уильям Фихтнер, Сэм Шепард, Джейсон Айзекс, Том Сайзмор, Рон Элдард, Том Харди, Николай Костер-Вальдау

О фильме:
Сомали, 1993 год. Страна вымирает от голода, число жертв превысило триста тысяч человек. Миротворческие силы ООН пытаются восстановить порядок и организовать поставки продовольствия. В помощь им Вашингтон выслал полтысячи человек из элитных подразделений американской армии, знаменитые отряды «Дельта» и армейских рейнджеров.
В городе Могадишо хозяйничает и творит беспредел полевой командир Айдид, убивая мирных граждан и отбирая гуманитарную помощь. В определенный момент орлы из Вашингтона решают провести операцию по захвату Айдида в его резиденции.
Молодой офицер, только что назначенный взводным; матерый сержант, ведущий колонну машин; казарменный писарь, не нюхавший пороху; экипажи сбитых вертолетов, вынужденных ждать подкрепления и эвакуации; пара солдат, которых забыли взять с собой при смене позиции; генерал, сидящий в штабе и наблюдающий со спутника, как погибают его солдаты…




Страна: США, Великобритания
Версия: Extended Version
Продолжительность: 02:31:50
Перевод: Профессиональный многоголосый (Киномания), профессиональный двухголосый (Гланц и Королёва)
Субтитры: Русские полные, английские полные

Файл
Качество: UHD BDRip 1080p
Формат: Matroska
Видео: MPEG-4 AVC, 1920х800, 13.0 Mbps, 23.976 fps
Аудио #1: AC3, 6 ch, 448 kbps | Russian | MVO Киномания
Аудио #2: AC3, 6 ch, 640 kbps | Russian | DVO Гланц и Королёва
Аудио #3: DTS, 6 ch, 1509 kbps | English | Оригинал
Формат субтитров: softsub (SRT)

Семпл

Скриншоты
MediaInfo, x264 log
General
Unique ID : 38457387571658697901760079314862370730 (0x1CEE9F9927C9D5D0B54B0B1D6A126FAA)
Complete name : Black Hawk Down (2001) Extended UHD BDRip 1080p.mkv
Format : Matroska
Format version : Version 4
File size : 16.5 GiB
Duration : 2 h 31 min
Overall bit rate : 15.6 Mb/s
Movie name : Black Hawk Down (2001) Extended Version
Encoded date : UTC 2019-05-26 14:57:33
Writing application : mkvmerge v34.0.0 ('Sight and Seen') 64-bit
Writing library : libebml v1.3.7 + libmatroska v1.5.0
Attachments : poster.jpg

Video
ID : 1
Format : AVC
Format/Info : Advanced Video Codec
Format profile : [email protected]
Format settings : CABAC / 5 Ref Frames
Format settings, CABAC : Yes
Format settings, Reference : 5 frames
Codec ID : V_MPEG4/ISO/AVC
Duration : 2 h 31 min
Bit rate : 13.0 Mb/s
Width : 1 920 pixels
Height : 800 pixels
Display aspect ratio : 2.40:1
Frame rate mode : Constant
Frame rate : 23.976 (24000/1001) FPS
Color space : YUV
Chroma subsampling : 4:2:0
Bit depth : 8 bits
Scan type : Progressive
Bits/(Pixel*Frame) : 0.353
Stream size : 13.8 GiB (83%)
Writing library : x264 core 157 r2935+3 b68b5bf
Encoding settings : cabac=1 / ref=5 / deblock=1:-3:-3 / analyse=0x3:0x133 / me=umh / subme=11 / psy=1 / psy_rd=1.00:0.00 / mixed_ref=1 / me_range=32 / chroma_me=1 / trellis=2 / 8x8dct=1 / cqm=0 / deadzone=21,11 / fast_pskip=0 / chroma_qp_offset=-2 / threads=18 / lookahead_threads=4 / sliced_threads=0 / nr=0 / decimate=0 / interlaced=0 / bluray_compat=0 / constrained_intra=0 / bframes=12 / b_pyramid=2 / b_adapt=2 / b_bias=0 / direct=3 / weightb=1 / open_gop=0 / weightp=2 / keyint=240 / keyint_min=23 / scenecut=40 / intra_refresh=0 / rc_lookahead=60 / rc=2pass / mbtree=0 / bitrate=13000 / ratetol=1.0 / qcomp=0.60 / qpmin=0 / qpmax=69 / qpstep=4 / cplxblur=20.0 / qblur=0.5 / vbv_maxrate=50000 / vbv_bufsize=62500 / nal_hrd=none / filler=0 / ip_ratio=1.40 / pb_ratio=1.30 / aq=3:0.70
Language : English
Default : Yes
Forced : No
Color range : Limited
Color primaries : BT.709
Transfer characteristics : BT.709
Matrix coefficients : BT.709

Audio #1
ID : 2
Format : AC-3
Format/Info : Audio Coding 3
Commercial name : Dolby Digital
Codec ID : A_AC3
Duration : 2 h 31 min
Bit rate mode : Constant
Bit rate : 448 kb/s
Channel(s) : 6 channels
Channel layout : L R C LFE Ls Rs
Sampling rate : 48.0 kHz
Frame rate : 31.250 FPS (1536 SPF)
Bit depth : 16 bits
Compression mode : Lossy
Stream size : 487 MiB (3%)
Title : Киномания
Language : Russian
Service kind : Complete Main
Default : Yes
Forced : No

Audio #2
ID : 3
Format : AC-3
Format/Info : Audio Coding 3
Commercial name : Dolby Digital
Codec ID : A_AC3
Duration : 2 h 31 min
Bit rate mode : Constant
Bit rate : 640 kb/s
Channel(s) : 6 channels
Channel layout : L R C LFE Ls Rs
Sampling rate : 48.0 kHz
Frame rate : 31.250 FPS (1536 SPF)
Bit depth : 16 bits
Compression mode : Lossy
Stream size : 695 MiB (4%)
Title : Гланц и Королёва
Language : Russian
Service kind : Complete Main
Default : No
Forced : No

Audio #3
ID : 4
Format : DTS
Format/Info : Digital Theater Systems
Codec ID : A_DTS
Duration : 2 h 31 min
Bit rate mode : Constant
Bit rate : 1 509 kb/s
Channel(s) : 6 channels
Channel layout : C L R Ls Rs LFE
Sampling rate : 48.0 kHz
Frame rate : 93.750 FPS (512 SPF)
Bit depth : 16 bits
Compression mode : Lossy
Stream size : 1.60 GiB (10%)
Title : Original
Language : English
Default : No
Forced : No

Text #1
ID : 5
Format : UTF-8
Codec ID : S_TEXT/UTF8
Codec ID/Info : UTF-8 Plain Text
Duration : 2 h 26 min
Bit rate : 74 b/s
Count of elements : 1544
Stream size : 79.4 KiB (0%)
Title : Full
Language : Russian
Default : No
Forced : No

Text #2
ID : 6
Format : UTF-8
Codec ID : S_TEXT/UTF8
Codec ID/Info : UTF-8 Plain Text
Duration : 2 h 19 min
Bit rate : 50 b/s
Count of elements : 1612
Stream size : 51.9 KiB (0%)
Title : Full
Language : English
Default : No
Forced : No

Menu
00:00:00.000 : en:Chapter 1
00:21:48.682 : en:Chapter 2
00:31:40.314 : en:Chapter 3
00:39:19.940 : en:Chapter 4
00:43:25.519 : en:Chapter 5
00:54:04.073 : en:Chapter 6
01:02:18.359 : en:Chapter 7
01:10:22.050 : en:Chapter 8
01:28:36.811 : en:Chapter 9
01:30:26.295 : en:Chapter 10
01:43:36.042 : en:Chapter 11
01:48:49.772 : en:Chapter 12
02:02:18.914 : en:Chapter 13
02:06:20.864 : en:Chapter 14
02:11:28.630 : en:Chapter 15
02:20:13.362 : en:Chapter 16



x264 [info]: frame I:1402 Avg QP:19.14 size:207997
x264 [info]: frame P:54134 Avg QP:22.29 size:102770
x264 [info]: frame B:162900 Avg QP:24.34 size: 54895
x264 [info]: consecutive B-frames: 3.7% 5.7% 11.3% 22.7% 12.2% 35.0% 3.6% 1.4% 1.3% 0.8% 0.6% 0.9% 0.7%
x264 [info]: mb I I16..4: 8.0% 79.8% 12.2%
x264 [info]: mb P I16..4: 0.5% 23.5% 1.0% P16..4: 24.5% 29.7% 10.0% 1.1% 0.1% skip: 9.6%
x264 [info]: mb B I16..4: 0.0% 3.7% 0.1% B16..8: 40.3% 18.2% 4.2% direct: 9.5% skip:23.9% L0:45.7% L1:43.7% BI:10.6%
x264 [info]: 8x8 transform intra:93.8% inter:60.8%
x264 [info]: direct mvs spatial:98.9% temporal:1.1%
x264 [info]: coded y,uvDC,uvAC intra: 95.3% 82.9% 56.6% inter: 46.8% 26.4% 7.5%
x264 [info]: i16 v,h,dc,p: 29% 17% 8% 45%
x264 [info]: i8 v,h,dc,ddl,ddr,vr,hd,vl,hu: 6% 6% 8% 11% 16% 14% 14% 12% 13%
x264 [info]: i4 v,h,dc,ddl,ddr,vr,hd,vl,hu: 7% 6% 5% 10% 17% 15% 15% 12% 13%
x264 [info]: i8c dc,h,v,p: 43% 21% 15% 21%
x264 [info]: Weighted P-Frames: Y:5.4% UV:2.0%
x264 [info]: ref P L0: 46.1% 10.3% 23.2% 10.3% 9.0% 1.0% 0.0%
x264 [info]: ref B L0: 74.2% 17.5% 6.6% 1.7%
x264 [info]: ref B L1: 93.9% 6.1%
x264 [info]: kb/s:12993.57
Сравнение
BDRip 1080p (JPN Transfer) vs UHD BDRip 1080p












Black Hawk Down Extended : Screenshot Comparison
Театральная версия
 

Вложения

  • 42,2 KB Просмотры: 0
    Личеров 0
    Сидеров 0
    Файлов 1
    Объем 16,5 GB
Ваш e-mail не будет опубликован. Он потребуется для подтверждения Вашего поста.
Оформление текста Нажмите «Ввод», чтобы отправить ответ.