За сегодня опубликовано 0 новых материалов.
Инструкция новичку Путеводитель по форуму Прокси для Telegram Показать подсказки , это бомба!

Скачать Череп и кости / Crossbones [S01] (2014) WEB-DLRip от Generalfilm | NewStudio бесплатно через торрент

  • Получай до 480 рублей за каждого приглашенного пользователя!
    представляем Вам очередное расширение партнерской программы, подробности описаны тут -> ссылка
  • 90% материалов доступно к скачиванию после простой регистрации!
    Если же ты хочешь скачивать материалы без требования оставлять отзывы то получи группу "Новичок", 10 способов повышения описаны тут -> ссылка
  • К сожалению количество битых ссылок растет и мы уже не можем их оперативно восстанавливать поэтому просим помощи у каждого нашего пользователя.
    С сегодняшнего дня, за каждую восстановленную ссылку мы заплатим Вам.
    Подробнее тут -> ссылка
  • Перенесем твои заслуги с другого ресурса!
    Мы понимаем как сложно прокачивать аккаунты на форумах, вроде раскачал аккаунт, а тут появляется ресурс в 100 раз круче но тоже с системой прокачки и снова качать аккаунт...
    Предлагаем вам перенести Ваши заслуги на другом подобном ресурсе к нам.
    Подробности описаны тут -> ссылка
  • Вы можете получать по 2.5% с каждой покупки и продажи на маркете! Подробности в теме Партнёрская программа
Если Вы не хотите скачивать, Вы всегда можете посмотреть онлайн, просто нажмите кнопку ниже :

Открыть плеер

Torrent_Bot

Торрент-Бот
Бот форума
4 Окт 2016
125
31
20
Информация о фильме
Название: Череп и кости
Оригинальное название: Crossbones
Год выхода: 2014
Жанр: Драма, фантастика, ужасы, приключения, экранизация
Режиссер: Дэвид Слэйд, Киаран Доннелли, Дэниэл Эттиэс, Терри Макдонаф, Деран Сарафян, Стив Шилл
В ролях: Джон Малкович, Ричард Койл, Клер Фой, Ясмин Эл Массри, Дэвид Хофлин, Крис Перфетти, Трэйси Айфичор, Питер Стеббингс, Джулиан Сэндс, Эзра Баззингтон, Генри Херфорд, Эмильен Де Фалько, Кевин Райан...

О фильме:
1715 год. Багамский островов Нью-Провиденс. Здесь появилась первая функционирующая демократия в Америке. Дьявольский пират Эдвард Тич, он же Черная Борода, господствует здесь над нацией воров, преступников и злодеев моряков. Чтобы получить контроль над этим устрашающим обществом, опытного убийцу Тома Лоу посылают убить Черную Бороду.

3665c367ed8291ce5fa319803a94b3cb.gifbf89bbea6f3c5c41b70366967865950b.gif

Список серий:
1. Владения дьявола / The Devil's Dominion
2. Ковенант / The Covenant
3. Человек, убивший Чёрную Бороду / The Man Who Killed Blackbeard
4. Антуанетта / Antoinette
5. Возвращение / The Return
6. Дыра в голове / A Hole in the Head
7. Нищий / Beggarman
8. Череп и кости / Crossbones
9. Чёрная борода / Blackbeard
Страна: США
Студия: Universal TV
Продолжительность: 9 x ~ 00:50:00
Перевод: Профессиональный (многоголосый, закадровый) [NewStudio]

Файл
Формат: AVI
Качество: WEB-DLRip
Видео: XviD, 720x400, ~1800 kbps, 23.976 fps
Аудио: AC3, 48.0 KHz, 6 ch, 192 Kbps
Субтитры: Нет

Семпл

Скриншоты
dd7307954c267c96027d6af5867ada27.jpga790e81437be90fc0ce1dd4e9f01d416.jpg1e594a611cf2bb4b52bdeeff56fe27e2.jpg68b942266de349745bcf4e197de934e8.jpg2a70670877bbf60ae1ce524229525b62.jpg08c1410ad7f43962b3e28434348e6f16.jpg0a6eec9e9fe3661d29777bbbb3a1a1ab.jpg40a5d44f8dee9fa7834d943a2ef39a98.jpg56d330c238f7b8cfeaa45ca241ecbcab.jpg7a23487cd4c25000bf4bf7f5447be9cb.jpg
MI
Complete name : E:KinoCherep.I.Kosti.XviD.WEB-DLRip.GeneralfilmCherep.I.Kosti.S01.2014.XviD.WEB-DLRip.NS.GeneralfilmCherep.I.Kosti.s01e01.2014.XviD.WEB-DLRip.NS.Generalfilm.avi
Format : AVI
Format/Info : Audio Video Interleave
File size : 723 MiB
Duration : 50mn 17s
Overall bit rate : 2 010 Kbps
Writing application : VirtualDubMod 1.5.10.3 | www.virtualdub-fr.org || (build 2550/release)
Writing library : VirtualDubMod build 2550/release

Video
ID : 0
Format : MPEG-4 Visual
Format profile : Advanced [email protected]
Format settings, BVOP : 2
Format settings, QPel : No
Format settings, GMC : No warppoints
Format settings, Matrix : Default (H.263)
Codec ID : XVID
Codec ID/Hint : XviD
Duration : 50mn 17s
Bit rate : 1 809 Kbps
Width : 720 pixels
Height : 400 pixels
Display aspect ratio : 16:9
Frame rate : 23.976 fps
Color space : YUV
Chroma subsampling : 4:2:0
Bit depth : 8 bits
Scan type : Progressive
Compression mode : Lossy
Bits/(Pixel*Frame) : 0.262
Stream size : 651 MiB (90%)
Writing library : XviD 1.2.1 (UTC 2008-12-04)

Audio
ID : 1
Format : AC-3
Format/Info : Audio Coding 3
Mode extension : CM (complete main)
Format settings, Endianness : Big
Codec ID : 2000
Duration : 50mn 17s
Bit rate mode : Constant
Bit rate : 192 Kbps
Channel count : 6 channels
Channel positions : Front: L C R, Side: L R, LFE
Sampling rate : 48.0 KHz
Bit depth : 16 bits
Compression mode : Lossy
Stream size : 69.1 MiB (10%)
Alignment : Split accross interleaves
Interleave, duration : 42 ms (1.00 video frame)
Interleave, preload duration : 500 ms
Релиз от:
 

Вложения

  • 16,1 KB Просмотры: 0
    Личеров 0
    Сидеров 0
    Файлов 9
    Объем 5,4 GB
Ваш e-mail не будет опубликован. Он потребуется для подтверждения Вашего поста.
Оформление текста Нажмите «Ввод», чтобы отправить ответ.