За сегодня опубликовано 26 новых материалов.
Инструкция новичку Путеводитель по форуму Прокси для Telegram Показать подсказки , это бомба!

Скачать Чего хотят мужчины / What Men Want (2019) HDRip от Portablius | HDRezka Studio бесплатно через торрент

  • 90% материалов доступно к скачиванию после простой регистрации!
    Если же ты хочешь скачивать материалы без требования оставлять отзывы то получи группу "Новичок", 10 способов повышения описаны тут -> ссылка
  • К сожалению количество битых ссылок растет и мы уже не можем их оперативно восстанавливать поэтому просим помощи у каждого нашего пользователя.
    С сегодняшнего дня, за каждую восстановленную ссылку мы заплатим Вам.
    Подробнее тут -> ссылка
  • Перенесем твои заслуги с другого ресурса!
    Мы понимаем как сложно прокачивать аккаунты на форумах, вроде раскачал аккаунт, а тут появляется ресурс в 100 раз круче но тоже с системой прокачки и снова качать аккаунт...
    Предлагаем вам перенести Ваши заслуги на другом подобном ресурсе к нам.
    Подробности описаны тут -> ссылка
  • Вы можете получать по 2.5% с каждой покупки и продажи на маркете! Подробности в теме Партнёрская программа
Если Вы не хотите скачивать, Вы всегда можете посмотреть онлайн, просто нажмите кнопку ниже :

Открыть плеер

Torrent_Bot

Торрент-Бот
Бот форума
4 Окт 2016
125
17
20



Информация о фильме
Название: Чего хотят мужчины
Оригинальное название: What Men Want
Год выхода: 2019
Жанр: Фэнтези, мелодрама, комедия
Режиссер: Адам Шенкман
В ролях: Тараджи П. Хенсон, Кристен Ледлоу, Джош Бренер, Келлан Латс, Джастин Альварез, Крис Витаск, Макс Гринфилд, Пол Брайан Джонсон, Брайан Босворт, Каусар Мохаммед, Трэйси Морган

О фильме: Али Дэвис - успешный менеджер спортивных звезд, продвижению по карьере которой постоянно мешают коллеги-мужчины. Получив возможность слышать мысли мужчин, она использует свой талант, чтобы изменить правила игры и заключить контракт с молодым и талантливым бейсболистом.



Страна: США
Продолжительность: 01:57:06
Перевод: Профессиональный (многоголосый, закадровый) (HDRezka Studio)
Субтитры: нет

Файл
Кодек: XviD
Качество: HDRip
Видео: 688x288 (2.39:1), 23.976 fps, XviD build 73 ~754 kbps avg, 0.16 bit/pixel
Звук: 48 kHz, MPEG Layer 3, 2 ch, ~128.00 kbps avg

MediaInfo
General
Complete name : What.Men.Want.2019.HDRip.Portablius.avi
Format : AVI
Format/Info : Audio Video Interleave
File size : 747 MiB
Duration : 1 h 57 min
Overall bit rate : 892 kb/s
Writing application : VirtualDubMod 1.5.10.3 | www.virtualdub-fr.org || (build 2550/release)
Writing library : VirtualDubMod build 2550/release

Video
ID : 0
Format : MPEG-4 Visual
Format profile : Advanced [email protected]
Format settings : BVOP1 / Custom Matrix
Format settings, BVOP : 1
Format settings, QPel : No
Format settings, GMC : No warppoints
Format settings, Matrix : Custom
Codec ID : XVID
Codec ID/Hint : XviD
Duration : 1 h 57 min
Bit rate : 755 kb/s
Width : 688 pixels
Height : 288 pixels
Display aspect ratio : 2.40:1
Frame rate : 23.976 (24000/1001) FPS
Color space : YUV
Chroma subsampling : 4:2:0
Bit depth : 8 bits
Scan type : Progressive
Compression mode : Lossy
Bits/(Pixel*Frame) : 0.159
Stream size : 632 MiB (85%)
Writing library : XviD 73

Audio
ID : 1
Format : MPEG Audio
Format version : Version 1
Format profile : Layer 3
Codec ID : 55
Codec ID/Hint : MP3
Duration : 1 h 57 min
Bit rate mode : Constant
Bit rate : 128 kb/s
Channel(s) : 2 channels
Sampling rate : 48.0 kHz
Frame rate : 41.667 FPS (1152 SPF)
Compression mode : Lossy
Stream size : 107 MiB (14%)
Alignment : Aligned on interleaves
Interleave, duration : 42 ms (1.00 video frame)
Interleave, preload duratio : 504 ms
Writing library : LAME3.99r
Encoding settings : -m s -V 4 -q 2 -lowpass 17 -b 128
Скриншоты
 

Вложения

  • 15,5 KB Просмотры: 0
    Личеров 0
    Сидеров 0
    Файлов 1
    Объем 747,3 MB
Ваш e-mail не будет опубликован. Он потребуется для подтверждения Вашего поста.
Оформление текста Нажмите «Ввод», чтобы отправить ответ.

Привет!

Мы группа людей которые решили помочь другим в решении их проблем, а так же пользователям с поиском самых свежих и качественных инфопродуктов. За 4 с небольшим месяца мы создали этот форум на который заходят ежедневно тысячи человек и посещаемость постоянно растёт. Мы создали панель лицензирования для защиты PHP скриптов от воровства и SEO панель для мониторинга наших сайтов и выбора верной стратегии их развития. Мы надеемся что то что мы создали пригодится Вам и возможно Вы поможете нам развиваться и совершенствоваться вместе с Вами.

Статистика форума

Темы
347.301
Сообщения
372.899
Пользователи
28.647
Новый пользователь
ghe112

Приложения форума для iOS и Android


У ркн там нет власти ;)
Гостевуха
Помощь Пользователи
  • H Chat Bot:
    Гость hjjjj присоединился к комнате.
    +1
  • H (Гость) hjjjj:
    тест
    Цитата
  • mizaider @ mizaider:
    Ну что там. Тест пройден или нет? Я волнуюсь.
    Цитата
  • V Chat Bot:
    Гость Vapasik2 присоединился к комнате.
  • V (Гость) Vapasik2:
    Добрый вечер. Не могу восстановить пароль (не приходит уведомление на почту).
    Цитата
  • V (Гость) Vapasik2:
    Что делать?
    Цитата
  • Alpha @ Alpha:
    Vapasik2 написал(а):
    Напишите в тех-поддержку Создать заявку
    Цитата
  • T Chat Bot:
    tezka75 присоединился(лась) к комнате.
  • D Chat Bot:
    DmitryB покинул(а) комнату.
  • Captain @ Captain:
    Батя в здание
    Цитата
  • Eevee @ Eevee:
    <script>alert('Привет))')</script>
    Цитата
  • Eevee @ Eevee:
    упс
    Цитата
  • mizaider @ mizaider:
    Не ну это бан
    Цитата
  • Captain @ Captain:
    Батя в здание
    Цитата
  • Captain @ Captain:
    @mizaider, чек лс@mizaider, чек лс
    Цитата
  • kolyan-malyan Chat Bot:
    kolyan-malyan покинул(а) комнату.
  • S Chat Bot:
    stylvihos покинул(а) комнату.
  • Verniki Chat Bot:
    Verniki присоединился(лась) к комнате.
  • Verniki @ Verniki:
    Уважаемые,пожалуйста, поясните мне - динозавру, что значит "тема в TOR"?
    Цитата
  • G Chat Bot:
    Garry_ покинул(а) комнату.
  • N Chat Bot:
    nyuh_900 покинул(а) комнату.
  • A Chat Bot:
    Asqw покинул(а) комнату.
    A Chat Bot: Asqw покинул(а) комнату.