За сегодня опубликовано 20 новых материалов.
Инструкция новичку Путеводитель по форуму Прокси для Telegram Показать подсказки , это бомба!

Скачать Благодетель / The Rainmaker (1997) BDRip 1080p от MediaClub бесплатно через торрент

  • Получай до 480 рублей за каждого приглашенного пользователя!
    представляем Вам очередное расширение партнерской программы, подробности описаны тут -> ссылка
  • 90% материалов доступно к скачиванию после простой регистрации!
    Если же ты хочешь скачивать материалы без требования оставлять отзывы то получи группу "Новичок", 10 способов повышения описаны тут -> ссылка
  • К сожалению количество битых ссылок растет и мы уже не можем их оперативно восстанавливать поэтому просим помощи у каждого нашего пользователя.
    С сегодняшнего дня, за каждую восстановленную ссылку мы заплатим Вам.
    Подробнее тут -> ссылка
  • Перенесем твои заслуги с другого ресурса!
    Мы понимаем как сложно прокачивать аккаунты на форумах, вроде раскачал аккаунт, а тут появляется ресурс в 100 раз круче но тоже с системой прокачки и снова качать аккаунт...
    Предлагаем вам перенести Ваши заслуги на другом подобном ресурсе к нам.
    Подробности описаны тут -> ссылка
  • Вы можете получать по 2.5% с каждой покупки и продажи на маркете! Подробности в теме Партнёрская программа
Если Вы не хотите скачивать, Вы всегда можете посмотреть онлайн, просто нажмите кнопку ниже :

Открыть плеер

Torrent_Bot

Торрент-Бот
Бот форума
4 Окт 2016
125
32
20

Информация о фильме
Название: Благодетель
Оригинальное название: The Rainmaker
Год выпуска: 1997
Жанр:Триллер, драма, криминал, экранизация
Режиссер: Френсис Форд Коппола
В ролях: Мэтт Дэймон, Дэнни ДеВито, Клер Дэйнс, Джон Войт, Мэри Кэй Плэйс, Тереза Райт, Джонни Витуорт, Рой Шайдер, Микки Рурк, Ред Уэст, Вирджиния Мэдсен, Дин Стокуэлл, Эндрю Шу, Уэйн Эммонс, Адриан Робертс, Рэнди Трэвис, Майкл Жирардин, Рэндолл Кинг, Джастин Эшфорт, Майкл Кис Холл, Джеймс Каннингэм, Фрэнк Клем, Алан Вулф

Описание: Фильм снят по мотивам романа «Золотой дождь» Джона Гришема. Молодому юристу Руди Бэйлору кажется, что вот — вот настанет «Звездный час» и он станет знаменитым адвокатом со своей собственной фирмой, роскошной виллой, шикарными машинами и женщинами. Но это только мечта. И ему приходится заниматься черной, неблагодарной работой на других. Все меняется в один день, когда он наталкивается на многомиллионную аферу в страховом бизнесе, разоблачив которую, он может осуществить все свои заветные мечты… если, конечно, сможет остаться живым.



Выпущено: США / American Zoetrope, Constellation Entertainment, Douglas/Reuther Productions
Продолжительность: 02:15:30
Перевод: Дублированный, профессиональный многоголосый, авторский, профессиональный одноголосый

Файл
Качество: BDRip 1080p
Видео: MPEG-4 AVC, 8000 Кбит/с, 1920x818, 23.976 кадр/с
Аудио #1: Русский (AC3, 2 ch, 192 Кбит/с) / Дублированный (Невафильм)
Аудио #2: Русский (DTS, 6 ch, 1509 Кбит/с) / Профессиональный многоголосый (R5)
Аудио #3: Русский (DTS, 6 ch, 1509 Кбит/с) / Авторский одноголосый (Живов)
Аудио #4: Русский (AC3, 2 ch, 192 Кбит/с) / Профессиональный многоголосый (ОРТ)
Аудио #5: Русский (AC3, 2 ch, 192 Кбит/с) / Профессиональный одноголосый (Студия "Новый Вавилон")
Аудио #6: Английский (DTS, 6 ch, 1509 Кбит/с)
Субтитры: Русские, английские

Семпл

Скриншоты
О релизе
За исходник спасибо: Прагматик (HDClub)
x264
x264 [info]: frame I:1469 Avg QP:14.11 size:230651
x264 [info]: frame P:38563 Avg QP:16.56 size: 87257
x264 [info]: frame B:154896 Avg QP:18.65 size: 28545
x264 [info]: consecutive B-frames: 1.4% 1.3% 5.7% 11.2% 18.6% 54.4% 4.8% 1.2% 0.6% 0.4% 0.4%
x264 [info]: mb I I16..4: 12.7% 70.3% 17.0%
x264 [info]: mb P I16..4: 2.9% 18.4% 1.4% P16..4: 26.6% 32.0% 14.5% 0.0% 0.0% skip: 4.2%
x264 [info]: mb B I16..4: 0.2% 1.5% 0.1% B16..8: 30.5% 18.6% 2.9% direct: 9.3% skip:37.0% L0:41.9% L1:37.2% BI:20.9%
x264 [info]: 8x8 transform intra:80.1% inter:40.4%
x264 [info]: direct mvs spatial:99.2% temporal:0.8%
x264 [info]: coded y,uvDC,uvAC intra: 85.3% 91.9% 81.9% inter: 31.8% 29.8% 12.4%
x264 [info]: i16 v,h,dc,p: 70% 4% 7% 19%
x264 [info]: i8 v,h,dc,ddl,ddr,vr,hd,vl,hu: 14% 9% 16% 8% 11% 10% 9% 11% 12%
x264 [info]: i4 v,h,dc,ddl,ddr,vr,hd,vl,hu: 23% 11% 8% 7% 12% 12% 10% 9% 9%
x264 [info]: i8c dc,h,v,p: 52% 19% 16% 12%
x264 [info]: Weighted P-Frames: Y:8.3% UV:1.9%
x264 [info]: ref P L0: 38.9% 8.5% 28.4% 10.5% 12.3% 1.3% 0.0%
x264 [info]: ref B L0: 76.5% 16.8% 4.5% 2.2%
x264 [info]: ref B L1: 94.9% 5.1%
x264 [info]: kb/s:7995.20
MI
Общее
Уникальный идентификатор : 248590582241425198732112338240504651155 (0xBB04CDFBC83FE63A9467A6B5DAA8DD93)
Полное имя : D:Mои раздачиBlagodetelj.1997.BDRip.1080p-MediaClub.mkv
Формат : Matroska
Версия формата : Version 4 / Version 2
Размер файла : 12,4 Гбайт
Продолжительность : 2 ч. 15 м.
Общий поток : 13,1 Мбит/сек
Название фильма : -=MediaClub-kaspr=-
Дата кодирования : UTC 2015-01-04 18:25:06
Программа кодирования : mkvmerge v6.9.1 ('Blue Panther') 64bit built on Apr 18 2014 18:23:38
Библиотека кодирования : libebml v1.3.0 + libmatroska v1.4.1

Видео
Идентификатор : 1
Формат : AVC
Формат/Информация : Advanced Video Codec
Профиль формата : [email protected]
Параметр CABAC формата : Да
Параметр ReFrames формата : 5 кадров
Идентификатор кодека : V_MPEG4/ISO/AVC
Продолжительность : 2 ч. 15 м.
Битрейт : 8000 Кбит/сек
Ширина : 1920 пикселей
Высота : 818 пикселей
Соотношение сторон : 2,35:1
Режим частоты кадров : Постоянный
Частота кадров : 23,976 кадра/сек
Цветовое пространство : YUV
Субдискретизация насыщенности : 4:2:0
Битовая глубина : 8 бит
Тип развёртки : Прогрессивная
Бит/(Пиксели*Кадры) : 0.212
Размер потока : 7,33 Гбайт (59%)
Заголовок : -=MediaClub-kaspr=-
Библиотека кодирования : x264 core 142 r2431+42 c69a006 tMod [[email protected]:2:0 X86_64]
Настройки программы : cabac=1 / ref=5 / deblock=1:-3:-3 / analyse=0x3:0x113 / me=umh / subme=11 / psy=1 / fade_compensate=0.00 / psy_rd=1.00:0.20 / mixed_ref=1 / me_range=32 / chroma_me=1 / trellis=2 / 8x8dct=1 / cqm=0 / deadzone=21,11 / fast_pskip=0 / chroma_qp_offset=-3 / threads=12 / lookahead_threads=3 / sliced_threads=0 / nr=0 / decimate=0 / interlaced=0 / bluray_compat=0 / constrained_intra=0 / fgo=0 / bframes=10 / b_pyramid=2 / b_adapt=2 / b_bias=0 / direct=3 / weightb=1 / open_gop=0 / weightp=2 / keyint=240 / keyint_min=23 / scenecut=40 / intra_refresh=0 / rc=2pass / mbtree=0 / bitrate=8000 / ratetol=1.0 / qcomp=0.60 / qpmin=0:0:0 / qpmax=69:69:69 / qpstep=4 / cplxblur=20.0 / qblur=0.5 / ip_ratio=1.40 / pb_ratio=1.30 / aq=4:0.80 / aq-sensitivity=10.00 / aq-factor=1.00:1.00:1.00 / aq2=0 / aq3=0
Default : Да
Forced : Нет

Аудио #1
Идентификатор : 2
Формат : AC-3
Формат/Информация : Audio Coding 3
Расширение режима : CM (complete main)
Параметр Endianness формата : Big
Идентификатор кодека : A_AC3
Продолжительность : 2 ч. 15 м.
Вид битрейта : Постоянный
Битрейт : 192 Кбит/сек
Каналы : 2 канала
Расположение каналов : Front: L R
Частота : 48,0 КГц
Битовая глубина : 16 бит
Метод сжатия : С потерями
Размер потока : 186 Мбайт (1%)
Заголовок : Dub
Язык : Russian
Default : Да
Forced : Нет

Аудио #2
Идентификатор : 3
Формат : DTS
Формат/Информация : Digital Theater Systems
Режим : 16
Параметр Endianness формата : Big
Идентификатор кодека : A_DTS
Продолжительность : 2 ч. 15 м.
Вид битрейта : Постоянный
Битрейт : 1509 Кбит/сек
Каналы : 6 каналов
Расположение каналов : Front: L C R, Side: L R, LFE
Частота : 48,0 КГц
Битовая глубина : 16 бит
Метод сжатия : С потерями
Размер потока : 1,43 Гбайт (12%)
Заголовок : MVO (R5)
Язык : Russian
Default : Нет
Forced : Нет

Аудио #3
Идентификатор : 4
Формат : DTS
Формат/Информация : Digital Theater Systems
Режим : 16
Параметр Endianness формата : Big
Идентификатор кодека : A_DTS
Продолжительность : 2 ч. 15 м.
Вид битрейта : Постоянный
Битрейт : 1509 Кбит/сек
Каналы : 6 каналов
Расположение каналов : Front: L C R, Side: L R, LFE
Частота : 48,0 КГц
Битовая глубина : 16 бит
Метод сжатия : С потерями
Размер потока : 1,43 Гбайт (12%)
Заголовок : AVO (Живов)
Язык : Russian
Default : Нет
Forced : Нет

Аудио #4
Идентификатор : 5
Формат : AC-3
Формат/Информация : Audio Coding 3
Расширение режима : CM (complete main)
Параметр Endianness формата : Big
Идентификатор кодека : A_AC3
Продолжительность : 2 ч. 15 м.
Вид битрейта : Постоянный
Битрейт : 192 Кбит/сек
Каналы : 2 канала
Расположение каналов : Front: L R
Частота : 48,0 КГц
Битовая глубина : 16 бит
Метод сжатия : С потерями
Размер потока : 186 Мбайт (1%)
Заголовок : MVO (OPT)
Язык : Russian
Default : Нет
Forced : Нет

Аудио #5
Идентификатор : 6
Формат : AC-3
Формат/Информация : Audio Coding 3
Расширение режима : CM (complete main)
Параметр Endianness формата : Big
Идентификатор кодека : A_AC3
Продолжительность : 2 ч. 15 м.
Вид битрейта : Постоянный
Битрейт : 192 Кбит/сек
Каналы : 2 канала
Расположение каналов : Front: L R
Частота : 48,0 КГц
Битовая глубина : 16 бит
Метод сжатия : С потерями
Размер потока : 186 Мбайт (1%)
Заголовок : VO
Язык : Russian
Default : Нет
Forced : Нет

Аудио #6
Идентификатор : 7
Формат : DTS
Формат/Информация : Digital Theater Systems
Режим : 16
Параметр Endianness формата : Big
Идентификатор кодека : A_DTS
Продолжительность : 2 ч. 15 м.
Вид битрейта : Постоянный
Битрейт : 1509 Кбит/сек
Каналы : 6 каналов
Расположение каналов : Front: L C R, Side: L R, LFE
Частота : 48,0 КГц
Битовая глубина : 16 бит
Метод сжатия : С потерями
Размер потока : 1,43 Гбайт (12%)
Язык : English
Default : Нет
Forced : Нет

Текст #1
Идентификатор : 8
Формат : UTF-8
Идентификатор кодека : S_TEXT/UTF8
Идентификатор кодека/Информация : UTF-8 Plain Text
Язык : Russian
Default : Нет
Forced : Нет

Текст #2
Идентификатор : 9
Формат : UTF-8
Идентификатор кодека : S_TEXT/UTF8
Идентификатор кодека/Информация : UTF-8 Plain Text
Язык : English
Default : Нет
Forced : Нет

Меню
00:00:00.000 : en:Chapter 01
00:01:57.283 : en:Chapter 02
00:07:29.407 : en:Chapter 03
00:12:11.981 : en:Chapter 04
00:15:35.017 : en:Chapter 05
00:19:39.011 : en:Chapter 06
00:28:15.652 : en:Chapter 07
00:32:11.971 : en:Chapter 08
00:34:18.890 : en:Chapter 09
00:36:45.661 : en:Chapter 10
00:40:47.278 : en:Chapter 11
00:44:19.740 : en:Chapter 12
00:50:09.589 : en:Chapter 13
00:52:50.292 : en:Chapter 14
00:57:29.404 : en:Chapter 15
00:59:56.551 : en:Chapter 16
01:05:18.831 : en:Chapter 17
01:07:16.532 : en:Chapter 18
01:09:20.865 : en:Chapter 19
01:11:34.790 : en:Chapter 20
01:17:41.573 : en:Chapter 21
01:18:27.494 : en:Chapter 22
01:26:38.818 : en:Chapter 23
01:34:03.804 : en:Chapter 24
01:36:44.048 : en:Chapter 25
01:40:06.000 : en:Chapter 26
01:49:03.954 : en:Chapter 27
01:51:33.645 : en:Chapter 28
01:59:12.562 : en:Chapter 29
02:03:14.387 : en:Chapter 30
02:05:25.100 : en:Chapter 31
02:06:46.724 : en:Chapter 32
02:09:04.987 : en:Chapter 33

Релиз: |
 

Вложения

  • 32,1 KB Просмотры: 0
    Личеров 0
    Сидеров 0
    Файлов 1
    Объем 12,4 GB
Ваш e-mail не будет опубликован. Он потребуется для подтверждения Вашего поста.
Оформление текста Нажмите «Ввод», чтобы отправить ответ.