За сегодня опубликовано 2 новых материалов.
Инструкция новичку Путеводитель по форуму Прокси для Telegram Показать подсказки , это бомба!

Скачать Белый парень Рик / White Boy Rick (2018) BDRip 1080p от OlLanDGroup | Лицензия бесплатно через торрент

  • Получай до 480 рублей за каждого приглашенного пользователя!
    представляем Вам очередное расширение партнерской программы, подробности описаны тут -> ссылка
  • 90% материалов доступно к скачиванию после простой регистрации!
    Если же ты хочешь скачивать материалы без требования оставлять отзывы то получи группу "Новичок", 10 способов повышения описаны тут -> ссылка
  • К сожалению количество битых ссылок растет и мы уже не можем их оперативно восстанавливать поэтому просим помощи у каждого нашего пользователя.
    С сегодняшнего дня, за каждую восстановленную ссылку мы заплатим Вам.
    Подробнее тут -> ссылка
  • Перенесем твои заслуги с другого ресурса!
    Мы понимаем как сложно прокачивать аккаунты на форумах, вроде раскачал аккаунт, а тут появляется ресурс в 100 раз круче но тоже с системой прокачки и снова качать аккаунт...
    Предлагаем вам перенести Ваши заслуги на другом подобном ресурсе к нам.
    Подробности описаны тут -> ссылка
  • Вы можете получать по 2.5% с каждой покупки и продажи на маркете! Подробности в теме Партнёрская программа
Если Вы не хотите скачивать, Вы всегда можете посмотреть онлайн, просто нажмите кнопку ниже :

Открыть плеер

Torrent_Bot

Торрент-Бот
Бот форума
4 Окт 2016
125
32
20


Информация о фильме


Название: Белый парень Рик
Оригинальное название: White Boy Rick
Год выпуска: 2018
Жанр:Драма, криминал, реальные события
Выпущено: США, LBI Productions, Protozoa Pictures, Studio 8
Режиссер: Ян Деманж
В ролях: Мэттью МакКонахи, Ричи Мерритт, Бел Паули, Дженнифер Джейсон Ли, Брайан Тайри Генри, Рори Кокрейн, АрДжей Сайлер, Джонатан Мэйджерс, Эдди Марсан, Тейлор Пейдж


О фильме: Основанная на реальных событиях история жизни Ричарда Вэрша-младшего, который в 80-х годах прошлого века работал тайным полицейским осведомителем, затем сам стал наркодилером.






Качество: BDRip (1080p)
Видео: MPEG-4 AVC, 10518 Kбит/с, 1920x804, 23.976 кадр/с
Аудио: Русский (AC3, 6 ch, 640 Кбит/с), английский (DTS, 6 ch, 1509 Кбит/с)
Размер: 9.84 ГБ
Продолжительность: 01:51:06
Перевод: Дублированный
Субтитры: Русские, английские



Озвучивание - Дублированное (Лицензия Blu-Ray EUR)
В русских субтитрах присутствует ненормативная лексика!


x264
x264 [info]: frame I:1079 Avg QP:15.73 size:213057
x264 [info]: frame P:34676 Avg QP:18.57 size: 97399
x264 [info]: frame B:124081 Avg QP:20.83 size: 41607
x264 [info]: consecutive B-frames: 1.7% 2.6% 9.0% 26.1% 15.7% 25.2% 7.8% 9.3% 1.9% 0.4% 0.4%
x264 [info]: mb I I16..4: 5.1% 84.3% 10.6%
x264 [info]: mb P I16..4: 0.9% 24.8% 0.9% P16..4: 25.6% 32.2% 10.6% 1.1% 0.0% skip: 3.8%
x264 [info]: mb B I16..4: 0.1% 3.4% 0.1% B16..8: 38.8% 22.7% 4.6% direct: 6.1% skip:24.2% L0:44.6% L1:44.5% BI:11.0%
x264 [info]: 8x8 transform intra:93.2% inter:63.3%
x264 [info]: direct mvs spatial:98.9% temporal:1.1%
x264 [info]: coded y,uvDC,uvAC intra: 94.4% 82.3% 56.8% inter: 33.8% 24.8% 7.9%
x264 [info]: i16 v,h,dc,p: 24% 20% 16% 40%
x264 [info]: i8 v,h,dc,ddl,ddr,vr,hd,vl,hu: 8% 7% 16% 10% 13% 11% 12% 11% 12%
x264 [info]: i4 v,h,dc,ddl,ddr,vr,hd,vl,hu: 30% 10% 10% 6% 10% 10% 9% 7% 8%
x264 [info]: i8c dc,h,v,p: 38% 26% 19% 18%
x264 [info]: Weighted P-Frames: Y:3.2% UV:1.4%
x264 [info]: ref P L0: 48.1% 7.6% 24.5% 9.5% 9.2% 1.1% 0.0%
x264 [info]: ref B L0: 79.8% 14.6% 4.3% 1.3%
x264 [info]: ref B L1: 93.8% 6.2%
x264 [info]: kb/s:10524.27

Инфо-файл
Общее
Уникальный идентификатор : 203972371694333608364074072999278653845 (0x9973A65C65DCB7B1AD5572BCF4A3B195)
Полное имя : D:ЗагрузкиWhite.Boy.Rick.2018.x264.BDRip.(1080p).OlLanDGroup.mkv
Формат : Matroska
Версия формата : Version 4 / Version 2
Размер файла : 9,84 Гбайт
Продолжительность : 1 ч. 51 м.
Общий поток : 12,7 Мбит/сек
Название фильма : Белый парень Рик.2018.Rip by: ollan
Дата кодирования : UTC 2019-04-04 15:27:22
Программа кодирования : mkvmerge v6.5.0 ('Isn't she lovely') built on Oct 20 2013 12:50:05
Библиотека кодирования : libebml v1.3.0 + libmatroska v1.4.1
Обложка : Yes
Attachments : Cover - White.Boy.Rick.png

Видео
Идентификатор : 1
Формат : AVC
Формат/Информация : Advanced Video Codec
Профиль формата : [email protected]
Настройки формата : CABAC / 5 Ref Frames
Параметр CABAC формата : Да
Параметр ReFrames формата : 5 кадров
Идентификатор кодека : V_MPEG4/ISO/AVC
Продолжительность : 1 ч. 51 м.
Битрейт : 10,5 Мбит/сек
Ширина : 1920 пикселей
Высота : 804 пикселя
Соотношение сторон : 2,40:1
Режим частоты кадров : Постоянный
Частота кадров : 23,976 (24000/1001) кадра/сек
Цветовое пространство : YUV
Субдискретизация насыщенности : 4:2:0
Битовая глубина : 8 бит
Тип развёртки : Прогрессивная
Бит/(Пиксели*Кадры) : 0.284
Размер потока : 7,97 Гбайт (81%)
Библиотека кодирования : x264 core 146 r2538 121396c
Настройки программы : cabac=1 / ref=5 / deblock=1:-2:-3 / analyse=0x3:0x133 / me=umh / subme=11 / psy=1 / psy_rd=0.90:0.05 / mixed_ref=1 / me_range=64 / chroma_me=1 / trellis=2 / 8x8dct=1 / cqm=0 / deadzone=21,11 / fast_pskip=0 / chroma_qp_offset=-3 / threads=12 / lookahead_threads=3 / sliced_threads=0 / nr=0 / decimate=0 / interlaced=0 / bluray_compat=0 / constrained_intra=0 / bframes=10 / b_pyramid=2 / b_adapt=2 / b_bias=0 / direct=3 / weightb=1 / open_gop=0 / weightp=2 / keyint=240 / keyint_min=23 / scenecut=40 / intra_refresh=0 / rc_lookahead=40 / rc=2pass / mbtree=0 / bitrate=10518 / ratetol=1.0 / qcomp=0.60 / qpmin=0 / qpmax=69 / qpstep=4 / cplxblur=20.0 / qblur=0.5 / vbv_maxrate=50000 / vbv_bufsize=62500 / nal_hrd=none / filler=0 / ip_ratio=1.40 / pb_ratio=1.30 / aq=1:1.00
Язык : English
Default : Да
Forced : Нет

Аудио #1
Идентификатор : 2
Формат : AC-3
Формат/Информация : Audio Coding 3
Идентификатор кодека : A_AC3
Продолжительность : 1 ч. 51 м.
Вид битрейта : Постоянный
Битрейт : 640 Кбит/сек
Каналы : 6 каналов
Расположение каналов : Front: L C R, Side: L R, LFE
Частота : 48,0 КГц
Частота кадров : 31,250 кадров/сек (1536 SPF)
Битовая глубина : 16 бит
Метод сжатия : С потерями
Размер потока : 509 Мбайт (5%)
Заголовок : Лицензия
Язык : Russian
Service kind : Complete Main
Default : Да
Forced : Нет

Аудио #2
Идентификатор : 3
Формат : DTS
Формат/Информация : Digital Theater Systems
Идентификатор кодека : A_DTS
Продолжительность : 1 ч. 51 м.
Вид битрейта : Постоянный
Битрейт : 1509 Кбит/сек
Каналы : 6 каналов
Расположение каналов : Front: L C R, Side: L R, LFE
Частота : 48,0 КГц
Частота кадров : 93,750 кадра/сек (512 SPF)
Битовая глубина : 16 бит
Метод сжатия : С потерями
Размер потока : 1,17 Гбайт (12%)
Язык : English
Default : Нет
Forced : Нет

Текст #1
Идентификатор : 4
Формат : UTF-8
Идентификатор кодека : S_TEXT/UTF8
Идентификатор кодека/Информация : UTF-8 Plain Text
Заголовок : Full
Язык : Russian
Default : Нет
Forced : Нет

Текст #2
Идентификатор : 5
Формат : UTF-8
Идентификатор кодека : S_TEXT/UTF8
Идентификатор кодека/Информация : UTF-8 Plain Text
Заголовок : Full
Язык : English
Default : Нет
Forced : Нет

Меню
00:00:00.000 : en:Chapter 01
00:02:44.831 : en:Chapter 02
00:04:14.379 : en:Chapter 03
00:05:18.484 : en:Chapter 04
00:06:56.582 : en:Chapter 05
00:08:22.460 : en:Chapter 06
00:09:53.509 : en:Chapter 07
00:11:29.188 : en:Chapter 08
00:12:58.861 : en:Chapter 09
00:14:28.784 : en:Chapter 10
00:16:05.255 : en:Chapter 11
00:17:37.681 : en:Chapter 12
00:19:08.105 : en:Chapter 13
00:20:39.905 : en:Chapter 14
00:22:12.039 : en:Chapter 15
00:24:12.784 : en:Chapter 16
00:26:16.950 : en:Chapter 17
00:28:10.939 : en:Chapter 18
00:30:15.313 : en:Chapter 19
00:32:12.764 : en:Chapter 20
00:34:06.711 : en:Chapter 21
00:35:45.101 : en:Chapter 22
00:37:15.274 : en:Chapter 23
00:38:44.864 : en:Chapter 24
00:40:16.705 : en:Chapter 25
00:41:47.004 : en:Chapter 26
00:43:16.510 : en:Chapter 27
00:44:51.522 : en:Chapter 28
00:46:22.696 : en:Chapter 29
00:47:53.120 : en:Chapter 30
00:49:25.295 : en:Chapter 31
00:50:56.053 : en:Chapter 32
00:52:27.602 : en:Chapter 33
00:55:30.035 : en:Chapter 34
00:57:01.584 : en:Chapter 35
00:58:33.134 : en:Chapter 36
01:00:04.058 : en:Chapter 37
01:01:37.151 : en:Chapter 38
01:03:07.909 : en:Chapter 39
01:06:07.338 : en:Chapter 40
01:07:38.137 : en:Chapter 41
01:09:36.088 : en:Chapter 42
01:11:36.333 : en:Chapter 43
01:13:35.828 : en:Chapter 44
01:15:36.156 : en:Chapter 45
01:16:44.808 : en:Chapter 46
01:18:46.263 : en:Chapter 47
01:20:37.749 : en:Chapter 48
01:22:37.160 : en:Chapter 49
01:24:38.573 : en:Chapter 50
01:26:41.112 : en:Chapter 51
01:28:42.066 : en:Chapter 52
01:30:42.645 : en:Chapter 53
01:32:45.184 : en:Chapter 54
01:34:46.222 : en:Chapter 55
01:36:46.675 : en:Chapter 56
01:38:49.965 : en:Chapter 57
01:40:50.294 : en:Chapter 58
01:42:51.832 : en:Chapter 59
01:44:33.642 : en:Chapter 60

Скриншоты



Релиз от: Rip by:
 

Вложения

  • 25,6 KB Просмотры: 0
    Личеров 0
    Сидеров 0
    Файлов 1
    Объем 9,8 GB
Ваш e-mail не будет опубликован. Он потребуется для подтверждения Вашего поста.
Оформление текста Нажмите «Ввод», чтобы отправить ответ.