За последнюю неделю опубликовано 35 новых материалов.
Инструкция новичку Путеводитель по форуму Прокси для Telegram Показать подсказки , это бомба!

Английский пациент / The English Patient (1996) BDRip 720p

  • Поучаствуй (в качестве покупателя) в любых пяти совместных покупках (кроме завершённых и "Моментальных") и получи группу "Новичок" навсегда -> ссылка на раздел
  • Получай до 480 рублей за каждого приглашенного пользователя!
    представляем Вам очередное расширение партнерской программы, подробности описаны тут -> ссылка
  • 90% материалов доступно к скачиванию после простой регистрации!
    Если же ты хочешь скачивать материалы без требования оставлять отзывы то получи группу "Новичок", 10 способов повышения описаны тут -> ссылка
  • К сожалению количество битых ссылок растет и мы уже не можем их оперативно восстанавливать поэтому просим помощи у каждого нашего пользователя.
    С сегодняшнего дня, за каждую восстановленную ссылку мы заплатим Вам.
    Подробнее тут -> ссылка
  • Перенесем твои заслуги с другого ресурса!
    Мы понимаем как сложно прокачивать аккаунты на форумах, вроде раскачал аккаунт, а тут появляется ресурс в 100 раз круче но тоже с системой прокачки и снова качать аккаунт...
    Предлагаем вам перенести Ваши заслуги на другом подобном ресурсе к нам.
    Подробности описаны тут -> ссылка
  • Вы можете получать по 2.5% с каждой покупки и продажи на маркете! Подробности в теме Партнёрская программа
Если Вы не хотите скачивать, Вы всегда можетепосмотретьонлайн, просто нажмите кнопку ниже :

Открыть плеер

Torrent_Bot

Торрент-Бот
Бот форума
4 Окт 2016
125
66
20



Информация о фильме
Название: Английский пациент
Оригинальное название: The English Patient
Год выхода: 1996
Жанр: Драма, мелодрама, военный
Режиссер: Энтони Мингелла
В ролях: Рэйф Файнс, Кристин Скотт Томас, Жюльет Бинош, Колин Фёрт, Уиллем Дефо, Навин Эндрюс, Джулиан Уэдэм, Юрген Прохнов, Кевин Уотли, Клайв Меррисон

О фильме:
Вторая мировая война близится к концу. Молодая канадская медсестра ухаживает на заброшенной вилле за своим «английским пациентом», который получил страшные ожоги во время авиакатастрофы в пустыне Сахара.
Медленно угасая, он воскрешает в памяти свой страстный роман с замужней женщиной, сметенный ураганом войны и банальными предрассудками, что в конце концов и привело к трагической развязке.



Страна: США, Великобритания
Студия: Miramax Films, Tiger Moth Productions
Продолжительность: 02:41:49
Перевод: Профессиональный (многоголосый, закадровый) R5 + Профессиональный (многоголосый, закадровый) телеканал ОРТ + Профессиональный (двухголосый, закадровый) Премьер видео фильм с VHS + Оригинал

Файл
Кодек: x264
Качество: BDRip 720p (источник: selanne / Blu-ray Remux / 1080p [GER-Transfer])
Видео: 1280x694 (1.85:1), 5399 Kbps, 23.976 fps, 0.253 bit/pixel
Аудио #1: 48.0 kHz, AC3 Dolby Digital, 3/2 (L,C,R,l,r) + LFE ch, 448 kbps [Многоголосый, R5]
Аудио #2: 48.0 kHz, AC3 Dolby Digital, 2/0 (L,R) ch, 192 kbps [Многоголосый, телеканал ОРТ]
Аудио #3: 48.0 kHz, AC3 Dolby Digital, 2/0 (L,R) ch, 192 kbps [Двухголосый, Премьер видео фильм с VHS]
Аудио #4: 48.0 kHz, AC3 Dolby Digital, 3/2 (L,C,R,l,r) + LFE ch, 640 kbps [Английский]
Субтитры: Русские, английские

Семпл




x264
x264 [info]: frame I:1664 Avg QP:14.35 size:120787
x264 [info]: frame P:48995 Avg QP:16.76 size: 58033
x264 [info]: frame B:182117 Avg QP:18.79 size: 19248
MediaInfo
General
Unique ID : 176381098568001840159486234820784156933 (0x84B1C391489FB6EF8A035F749F5FF105)
Complete name : E:The.English.Patient.1996.BDRip.720p.GER.Transfer.mkv
Format : Matroska
Format version : Version 2
File size : 7.77 GiB
Duration : 2h 41mn
Overall bit rate : 6 871 Kbps
Encoded date : UTC 2013-10-05 10:05:27
Writing application : mkvmerge v5.8.0 ('No Sleep / Pillow') built on Sep 2 2012 15:37:04
Writing library : libebml v1.2.3 + libmatroska v1.3.0

Video
ID : 1
Format : AVC
Format/Info : Advanced Video Codec
Format profile : [email protected]
Format settings, CABAC : Yes
Format settings, ReFrames : 5 frames
Codec ID : V_MPEG4/ISO/AVC
Duration : 2h 41mn
Bit rate : 5 399 Kbps
Width : 1 280 pixels
Height : 694 pixels
Display aspect ratio : 1.85:1
Frame rate mode : Constant
Frame rate : 23.976 fps
Color space : YUV
Chroma subsampling : 4:2:0
Bit depth : 8 bits
Scan type : Progressive
Bits/(Pixel*Frame) : 0.253
Stream size : 5.95 GiB (77%)
Title : GER-Transfer
Writing library : x264 core 138 r2358 9e941d1
Encoding settings : cabac=1 / ref=5 / deblock=1:-3:-3 / analyse=0x3:0x133 / me=tesa / subme=11 / psy=1 / psy_rd=1.00:0.08 / mixed_ref=1 / me_range=32 / chroma_me=1 / trellis=2 / 8x8dct=1 / cqm=0 / deadzone=21,11 / fast_pskip=0 / chroma_qp_offset=-3 / threads=12 / lookahead_threads=1 / sliced_threads=0 / nr=0 / decimate=0 / interlaced=0 / bluray_compat=0 / constrained_intra=0 / bframes=6 / b_pyramid=2 / b_adapt=2 / b_bias=0 / direct=3 / weightb=0 / open_gop=0 / weightp=2 / keyint=240 / keyint_min=23 / scenecut=40 / intra_refresh=0 / rc=2pass / mbtree=0 / bitrate=5399 / ratetol=1.0 / qcomp=0.60 / qpmin=0 / qpmax=69 / qpstep=4 / cplxblur=20.0 / qblur=0.5 / ip_ratio=1.40 / pb_ratio=1.30 / aq=1:1.00
Language : German
Default : Yes
Forced : No

Audio #1
ID : 2
Format : AC-3
Format/Info : Audio Coding 3
Mode extension : CM (complete main)
Format settings, Endianness : Big
Codec ID : A_AC3
Duration : 2h 41mn
Bit rate mode : Constant
Bit rate : 448 Kbps
Channel count : 6 channels
Channel positions : Front: L C R, Side: L R, LFE
Sampling rate : 48.0 KHz
Bit depth : 16 bits
Compression mode : Lossy
Stream size : 519 MiB (7%)
Title : AC3 5.1ch 448 kbps - Многоголосый, R5
Language : Russian
Default : Yes
Forced : No

Audio #2
ID : 3
Format : AC-3
Format/Info : Audio Coding 3
Mode extension : CM (complete main)
Format settings, Endianness : Big
Codec ID : A_AC3
Duration : 2h 41mn
Bit rate mode : Constant
Bit rate : 192 Kbps
Channel count : 2 channels
Channel positions : Front: L R
Sampling rate : 48.0 KHz
Bit depth : 16 bits
Compression mode : Lossy
Stream size : 222 MiB (3%)
Title : AC3 2.0ch 192 kbps - Многоголосый, телеканал ОРТ
Language : Russian
Default : No
Forced : No

Audio #3
ID : 4
Format : AC-3
Format/Info : Audio Coding 3
Mode extension : CM (complete main)
Format settings, Endianness : Big
Codec ID : A_AC3
Duration : 2h 41mn
Bit rate mode : Constant
Bit rate : 192 Kbps
Channel count : 2 channels
Channel positions : Front: L R
Sampling rate : 48.0 KHz
Bit depth : 16 bits
Compression mode : Lossy
Stream size : 222 MiB (3%)
Title : AC3 2.0ch 192 kbps - Двухголосый, Премьер видео фильм с VHS
Language : Russian
Default : No
Forced : No

Audio #4
ID : 5
Format : AC-3
Format/Info : Audio Coding 3
Mode extension : CM (complete main)
Format settings, Endianness : Big
Codec ID : A_AC3
Duration : 2h 41mn
Bit rate mode : Constant
Bit rate : 640 Kbps
Channel count : 6 channels
Channel positions : Front: L C R, Side: L R, LFE
Sampling rate : 48.0 KHz
Bit depth : 16 bits
Compression mode : Lossy
Stream size : 741 MiB (9%)
Title : AC3 5.1ch 640 kbps - Английский
Language : English
Default : No
Forced : No

Text #1
ID : 6
Format : UTF-8
Codec ID : S_TEXT/UTF8
Codec ID/Info : UTF-8 Plain Text
Title : Русские
Language : Russian
Default : No
Forced : No

Text #2
ID : 7
Format : UTF-8
Codec ID : S_TEXT/UTF8
Codec ID/Info : UTF-8 Plain Text
Title : Английские
Language : English
Default : No
Forced : No

Menu
00:00:00.000 : en:00:00:00.000
00:04:13.503 : en:00:04:13.503
00:09:03.418 : en:00:09:03.418
00:15:00.900 : en:00:15:00.900
00:21:00.551 : en:00:21:00.551
00:30:11.226 : en:00:30:11.226
00:35:05.478 : en:00:35:05.478
00:39:09.931 : en:00:39:09.931
00:47:38.230 : en:00:47:38.230
00:53:21.657 : en:00:53:21.657
01:07:48.523 : en:01:07:48.523
01:17:21.345 : en:01:17:21.345
01:23:28.003 : en:01:23:28.003
01:31:28.066 : en:01:31:28.066
01:40:41.035 : en:01:40:41.035
01:48:47.563 : en:01:48:47.563
01:54:34.868 : en:01:54:34.868
02:03:11.884 : en:02:03:11.884
02:15:12.271 : en:02:15:12.271
02:26:59.227 : en:02:26:59.227
ЦитатаКто-то писал:
За исходник дорожек многоголосый телеканал ОРТ, двухголосый Премьер видео фильм с VHS спасибо SolarOlya, за сборку дорожек спасибо ylnian.
 

Вложения

  • 20,6 KB Просмотры: 1
    Личеров 0
    Сидеров 0
    Файлов 1
    Объем 7,8 GB
Ваш e-mail не будет опубликован. Он потребуется для подтверждения Вашего поста.
Оформление текста Нажмите «Ввод», чтобы отправить ответ.