За сегодня опубликовано 0 новых материалов.
Инструкция новичку Путеводитель по форуму Прокси для Telegram Показать подсказки , это бомба!

Скачать Андрей Миронов - Поет Андрей Миронов (2008) APE by гаврила бесплатно через торрент

  • Получай до 480 рублей за каждого приглашенного пользователя!
    представляем Вам очередное расширение партнерской программы, подробности описаны тут -> ссылка
  • 90% материалов доступно к скачиванию после простой регистрации!
    Если же ты хочешь скачивать материалы без требования оставлять отзывы то получи группу "Новичок", 10 способов повышения описаны тут -> ссылка
  • К сожалению количество битых ссылок растет и мы уже не можем их оперативно восстанавливать поэтому просим помощи у каждого нашего пользователя.
    С сегодняшнего дня, за каждую восстановленную ссылку мы заплатим Вам.
    Подробнее тут -> ссылка
  • Перенесем твои заслуги с другого ресурса!
    Мы понимаем как сложно прокачивать аккаунты на форумах, вроде раскачал аккаунт, а тут появляется ресурс в 100 раз круче но тоже с системой прокачки и снова качать аккаунт...
    Предлагаем вам перенести Ваши заслуги на другом подобном ресурсе к нам.
    Подробности описаны тут -> ссылка
  • Вы можете получать по 2.5% с каждой покупки и продажи на маркете! Подробности в теме Партнёрская программа

Torrent_Bot

Торрент-Бот
Бот форума
4 Окт 2016
125
32
20
Трэклист:
1. Белеет мой парус (Г. Гладков, Ю. Михайлов) 3:06
2. Танго "Рио" (Г. Гладков, Ю. Михайлов) 3:28
3. Песня Остапа (Г. Гладков, Ю. Михайлов) 2:37
4. Песня на пароходе (Г. Гладков, Ю. Михайлов) 2:16
5. Остров невезения (А. Зацепин, Л. Дербенев) 2:12
6. Песня черного кота (Г. Гладков, Ю. Энтин) 1:57
7. Песня о шпаге (Е. Крылатов, Ю. Энтин) 2:49
8. Что будет, то будет (Е. Крылатов, Б. Ахмадулина) 3:25
9. Песня о шляпке (И. Шварц, Б. Окуджава) 2:53
10. Женюсь! (И. Шварц, Б. Окуджава) 3:22
11. Джон Грей (М. Блантер, В. Масс) 2:15
12. Коломбо (Е. Крылатов, Б. Ахмадулина) 1:59
13. Таити-трот (Г. Гладков, Ю. Михайлов) 2:24
14. Вся жизнь моя (О. Фельцман, Б. Дубровин) 3:52
15. Ну чем не пара? (И. Шварц, Б. Окуджава) 3:24
16. Друзьям... (А. Петров, П. Вяземский) 2:45
17. Песня Мекки ножа (Г. Гладков, Ю. Михайлов) 4:39
18. Старый граммофон (И. Якушенко, Н. Олев) 2:49
19. Песня о незнакомом певце (Г. Гладков, Ю. Михайлов) 3:57
20. Большая дорога (И. Шварц, Б. Окуджава) 4:09
21. Куплеты администратора (Е. Крылатов, Б. Ахмадулина) 2:59
22. Ну почему ко мне ты равнодушна? (В. Шаинский, М. Матусовкий) 3:45
23. Некогда (Н. Андреев, Ю. Михайлов) 3:00

Жанр:Retro
Год выпуска диска: 2008
Производитель диска: Украина
Аудио кодек: APE
Тип рипа: image+.cue
Битрейт аудио: lossless
Продолжительность: 1:09:12

Exact Audio Copy V0.99 prebeta 4 from 23. January 2008
Отчёт EAC об извлечении, выполненном 12. октября 2008, 12:45
Андрей Миронов / Поет Андрей Миронов
Дисковод: Optiarc DVD RW AD-7530A Adapter: 1 ID: 1
Режим чтения : Достоверность
Использование точного потока : Да
Отключение кэша аудио : Да
Использование указателей C2 : Нет
Коррекция смещения при чтении : 6
Способность читать области Lead-in и Lead-out : Нет
Заполнение пропущенных сэмплов тишиной : Да
Удаление блоков с тишиной в начале и конце : Нет
При вычислениях CRC использовались нулевые сэмплы : Да
Интерфейс : Встроенный Win32-интерфейс для Win NT/2000
Выходной формат : Внутренние WAV-операции
Формат сэмплов : 44.100 Гц; 16 бит; стерео
TOC извлечённого CD
Трек | Старт | Длительность | Начальный сектор | Конечный сектор
---------------------------------------------------------------------
1 | 0:00.00 | 3:06.39 | 0 | 13988
2 | 3:06.39 | 2:28.03 | 13989 | 25091
3 | 5:34.42 | 2:37.73 | 25092 | 36939
4 | 8:12.40 | 2:16.06 | 36940 | 47145
5 | 10:28.46 | 2:12.53 | 47146 | 57098
6 | 12:41.24 | 1:57.18 | 57099 | 65891
7 | 14:38.42 | 2:49.00 | 65892 | 78566
8 | 17:27.42 | 3:25.74 | 78567 | 94015
9 | 20:53.41 | 2:53.60 | 94016 | 107050
10 | 23:47.26 | 3:22.48 | 107051 | 122248
11 | 27:09.74 | 2:15.65 | 122249 | 132438
12 | 29:25.64 | 1:59.47 | 132439 | 141410
13 | 31:25.36 | 2:24.25 | 141411 | 152235
14 | 33:49.61 | 3:52.39 | 152236 | 169674
15 | 37:42.25 | 3:24.43 | 169675 | 185017
16 | 41:06.68 | 2:45.49 | 185018 | 197441
17 | 43:52.42 | 4:39.09 | 197442 | 218375
18 | 48:31.51 | 2:49.41 | 218376 | 231091
19 | 51:21.17 | 3:57.01 | 231092 | 248867
20 | 55:18.18 | 4:09.20 | 248868 | 267562
21 | 59:27.38 | 2:59.45 | 267563 | 281032
22 | 62:27.08 | 3:45.14 | 281033 | 297921
23 | 66:12.22 | 3:00.18 | 297922 | 311439
Характеристики диапазона извлечения и сообщения об ошибках
Выбранный диапазон
Имя файла D:Downloadspoet andrey mirinov.wav
Пиковый уровень 100.0 %
Качество диапазона 99.9 %
CRC копии 47A29F03
Копирование... OK
Ошибок не произошло
Конец отчёта
 

Вложения

  • 16,3 KB Просмотры: 0
    Личеров 0
    Сидеров 0
    Файлов 5
    Объем 384,7 MB
Ваш e-mail не будет опубликован. Он потребуется для подтверждения Вашего поста.
Оформление текста Нажмите «Ввод», чтобы отправить ответ.