За сегодня опубликовано 18 новых материалов.
Инструкция новичку Путеводитель по форуму Прокси для Telegram Показать подсказки , это бомба!

Скачать Американский пирог / American Pie (1999) BDRip 720p от KORSAR | D, P, A | GER Transfer бесплатно через торрент

  • 90% материалов доступно к скачиванию после простой регистрации!
    Если же ты хочешь скачивать материалы без требования оставлять отзывы то получи группу "Новичок", 10 способов повышения описаны тут -> ссылка
  • К сожалению количество битых ссылок растет и мы уже не можем их оперативно восстанавливать поэтому просим помощи у каждого нашего пользователя.
    С сегодняшнего дня, за каждую восстановленную ссылку мы заплатим Вам.
    Подробнее тут -> ссылка
  • Перенесем твои заслуги с другого ресурса!
    Мы понимаем как сложно прокачивать аккаунты на форумах, вроде раскачал аккаунт, а тут появляется ресурс в 100 раз круче но тоже с системой прокачки и снова качать аккаунт...
    Предлагаем вам перенести Ваши заслуги на другом подобном ресурсе к нам.
    Подробности описаны тут -> ссылка
  • Вы можете получать по 2.5% с каждой покупки и продажи на маркете! Подробности в теме Партнёрская программа
Если Вы не хотите скачивать, Вы всегда можете посмотреть онлайн, просто нажмите кнопку ниже :

Открыть плеер

Torrent_Bot

Торрент-Бот
Бот форума
4 Окт 2016
125
17
20

Американский пирог
American Pie
«Кое-что о первой порции»


Страна: США
Жанр: комедия
Год выпуска: 1999
Продолжительность: 01:35:36
Перевод: Профессиональный (полное дублирование), Профессиональный (многоголосый, закадровый), Авторский
Субтитры: русские, английские.


Режиссер: Пол Вайц / Paul Weitz, Крис Вайц / Chris Weitz


В ролях: Джейсон Биггз(Jim Levenstein), Крис Клейн(Chris «Oz» Ostreicher), Томас Иэн Николас(Kevin Myers), Эдди Кэй Томас(Paul Finch), Мена Сувари(Heather), Тара Рид(Victoria «Vicky» Lathum), Шеннон Элизабет(Nadia), Элисон Хэннигэн(Michelle Flaherty), Шонн Уильям Скотт(Steve Stifler), Юджин Леви(Jim's Dad), Наташа Лионн(Jessica), Дженнифер Кулидж(Stifler's Mom)


Описание: На вечеринке четверо старшеклассников, Джим, Кевин, Финч и Оз, выясняют, что никто из них еще не имел сексуального опыта с девушками. Приятели считают, что с коллективной девственностью надо обязательно расстаться до того, как они переступят порог колледжа. На носу школьный выпускной бал, и у друзей осталось совсем мало времени на то, чтобы выполнить задуманное.











Качество: BDRip 720p
Контейнер: MKV

Видео: MPEG-4 AVC, 1272x720 (16:9), 5000 kbps, 24 fps, 0,227 bpp
Аудио №1: русский / AC3 / 5.1 / 48 kHz / 384 kbps / Дубляж
Аудио №2: русский / AC3 / 2.0 / 48 kHz / 192 kbps / MVO
Аудио №3: русский / AC3 / 5.1 / 48 kHz / 640 kbps / AVO ( Живов )
Аудио №4: русский / AC3 / 5.1 / 48 kHz / 448 kbps / AVO ( Строев )
Аудио №5: русский / AC3 / 5.1 / 48 kHz / 448 kbps / AVO ( Чадов )
Аудио №6: английский / AC3 / 5.1 / 48 kHz / 640 kbps
Навигация по главам: есть


Media Info
*********************************************************************
x264 [info]: frame I:1311 Avg QP:13.12 size:134814
x264 [info]: frame P:28273 Avg QP:15.54 size: 54059
x264 [info]: frame B:108081 Avg QP:17.46 size: 17378
*********************************************************************
Формат : Matroska
Версия формата : Version 2
Размер файла : 5,18 Гбайт
Продолжительность : 1 ч. 35 м.
Общий поток : 7753 Кбит/сек
Название фильма : = Американский пирог / American Pie (1999) BDRip 720p - KORSAR =
Дата кодирования : UTC 2019-05-11 07:11:09
Программа кодирования : mkvmerge v5.8.0 ('No Sleep / Pillow') built on Sep 2 2012 15:37:04
Библиотека кодирования : libebml v1.2.3 + libmatroska v1.3.0
Attachment : Yes

Видео
Идентификатор : 1
Формат : AVC
Формат/Информация : Advanced Video Codec
Профиль формата : [email protected]
Параметр CABAC формата : Да
Параметр ReFrames формата : 9 кадров
Идентификатор кодека : V_MPEG4/ISO/AVC
Продолжительность : 1 ч. 35 м.
Битрейт : 5000 Кбит/сек
Ширина : 1272 пикселя
Высота : 720 пикселей
Соотношение сторон : 16:9
Режим частоты кадров : Постоянный
Частота кадров : 24,000 кадра/сек
Цветовое пространство : YUV
Субдискретизация насыщенности : 4:2:0
Битовая глубина : 8 бит
Тип развёртки : Прогрессивная
Бит/(Пиксели*Кадры) : 0.227
Размер потока : 3,24 Гбайт (63%)
Заголовок : Американский пирог / American Pie (1999) BDRip 720p - KORSAR
Библиотека кодирования : x264 core 152 r2851kMod ba24899
Настройки программы : cabac=1 / ref=9 / deblock=1:-3:-3 / analyse=0x3:0x113 / me=umh / subme=11 / psy=1 / fade_compensate=0.00 / psy_rd=1.00:0.02 / mixed_ref=1 / me_range=48 / chroma_me=1 / trellis=2 / 8x8dct=1 / cqm=0 / deadzone=21,11 / fast_pskip=0 / chroma_qp_offset=-3 / threads=12 / lookahead_threads=3 / sliced_threads=0 / nr=0 / decimate=0 / interlaced=0 / bluray_compat=0 / constrained_intra=0 / bframes=10 / b_pyramid=2 / b_adapt=2 / b_bias=0 / direct=3 / weightb=1 / open_gop=0 / weightp=2 / keyint=240 / keyint_min=24 / scenecut=40 / intra_refresh=0 / rc_lookahead=60 / rc=2pass / mbtree=0 / bitrate=5000 / ratetol=1.0 / qcomp=0.66 / qpmin=0 / qpmax=39 / qpstep=4 / cplxblur=20.0 / qblur=0.5 / vbv_maxrate=50000 / vbv_bufsize=62500 / nal_hrd=none / filler=0 / ip_ratio=1.25 / pb_ratio=1.30 / aq=3:0.90
Язык : English
Default : Да
Forced : Нет
Основные цвета : BT.709
Характеристики трансфера : BT.709
Коэффициенты матрицы : BT.709

Аудио #1
Идентификатор : 2
Формат : AC-3
Формат/Информация : Audio Coding 3
Расширение режима : CM (complete main)
Параметр Endianness формата : Big
Идентификатор кодека : A_AC3
Продолжительность : 1 ч. 35 м.
Вид битрейта : Постоянный
Битрейт : 384 Кбит/сек
Каналы : 6 каналов
Расположение каналов : Front: L C R, Side: L R, LFE
Частота : 48,0 КГц
Битовая глубина : 16 бит
Метод сжатия : С потерями
Размер потока : 263 Мбайт (5%)
Заголовок : Дубляж
Язык : Russian
Default : Да
Forced : Нет

Аудио #2
Идентификатор : 3
Формат : AC-3
Формат/Информация : Audio Coding 3
Расширение режима : CM (complete main)
Параметр Endianness формата : Big
Идентификатор кодека : A_AC3
Продолжительность : 1 ч. 35 м.
Вид битрейта : Постоянный
Битрейт : 192 Кбит/сек
Каналы : 2 канала
Расположение каналов : Front: L R
Частота : 48,0 КГц
Битовая глубина : 16 бит
Метод сжатия : С потерями
Размер потока : 131 Мбайт (2%)
Заголовок : MVO
Язык : Russian
Default : Нет
Forced : Нет

Аудио #3
Идентификатор : 4
Формат : AC-3
Формат/Информация : Audio Coding 3
Расширение режима : CM (complete main)
Параметр Endianness формата : Big
Идентификатор кодека : A_AC3
Продолжительность : 1 ч. 35 м.
Вид битрейта : Постоянный
Битрейт : 640 Кбит/сек
Каналы : 6 каналов
Расположение каналов : Front: L C R, Side: L R, LFE
Частота : 48,0 КГц
Битовая глубина : 16 бит
Метод сжатия : С потерями
Размер потока : 438 Мбайт (8%)
Заголовок : AVO ( Живов )
Язык : Russian
Default : Нет
Forced : Нет

Аудио #4
Идентификатор : 5
Формат : AC-3
Формат/Информация : Audio Coding 3
Расширение режима : CM (complete main)
Параметр Endianness формата : Big
Идентификатор кодека : A_AC3
Продолжительность : 1 ч. 35 м.
Вид битрейта : Постоянный
Битрейт : 448 Кбит/сек
Каналы : 6 каналов
Расположение каналов : Front: L C R, Side: L R, LFE
Частота : 48,0 КГц
Битовая глубина : 16 бит
Метод сжатия : С потерями
Размер потока : 306 Мбайт (6%)
Заголовок : AVO ( Строев )
Язык : Russian
Default : Нет
Forced : Нет

Аудио #5
Идентификатор : 6
Формат : AC-3
Формат/Информация : Audio Coding 3
Расширение режима : CM (complete main)
Параметр Endianness формата : Big
Идентификатор кодека : A_AC3
Продолжительность : 1 ч. 35 м.
Вид битрейта : Постоянный
Битрейт : 448 Кбит/сек
Каналы : 6 каналов
Расположение каналов : Front: L C R, Side: L R, LFE
Частота : 48,0 КГц
Битовая глубина : 16 бит
Метод сжатия : С потерями
Размер потока : 306 Мбайт (6%)
Заголовок : AVO ( Чадов )
Язык : Russian
Default : Нет
Forced : Нет

Аудио #6
Идентификатор : 7
Формат : AC-3
Формат/Информация : Audio Coding 3
Расширение режима : CM (complete main)
Параметр Endianness формата : Big
Идентификатор кодека : A_AC3
Продолжительность : 1 ч. 35 м.
Вид битрейта : Постоянный
Битрейт : 640 Кбит/сек
Каналы : 6 каналов
Расположение каналов : Front: L C R, Side: L R, LFE
Частота : 48,0 КГц
Битовая глубина : 16 бит
Метод сжатия : С потерями
Размер потока : 438 Мбайт (8%)
Язык : English
Default : Нет
Forced : Нет

Текст #1
Идентификатор : 8
Формат : UTF-8
Идентификатор кодека : S_TEXT/UTF8
Идентификатор кодека/Информация : UTF-8 Plain Text
Язык : Russian
Default : Нет
Forced : Нет

Текст #2
Идентификатор : 9
Формат : UTF-8
Идентификатор кодека : S_TEXT/UTF8
Идентификатор кодека/Информация : UTF-8 Plain Text
Язык : English
Default : Нет
Forced : Нет

Меню
00:00:00.000 : en:00:00:00.000
00:06:33.042 : en:00:06:33.042
00:12:06.958 : en:00:12:06.958
00:18:23.375 : en:00:18:23.375
00:26:52.167 : en:00:26:52.167
00:31:44.000 : en:00:31:44.000
00:38:18.333 : en:00:38:18.333
00:44:01.167 : en:00:44:01.167
00:53:26.833 : en:00:53:26.833
01:00:20.625 : en:01:00:20.625
01:07:50.500 : en:01:07:50.500
01:11:10.958 : en:01:11:10.958
01:16:55.667 : en:01:16:55.667
01:27:21.250 : en:01:27:21.250
01:29:51.417 : en:01:29:51.417


Скриншоты

 

Вложения

  • 26,8 KB Просмотры: 0
    Личеров 0
    Сидеров 0
    Файлов 1
    Объем 5,2 GB
Ваш e-mail не будет опубликован. Он потребуется для подтверждения Вашего поста.
Оформление текста Нажмите «Ввод», чтобы отправить ответ.

Привет!

Мы группа людей которые решили помочь другим в решении их проблем, а так же пользователям с поиском самых свежих и качественных инфопродуктов. За 4 с небольшим месяца мы создали этот форум на который заходят ежедневно тысячи человек и посещаемость постоянно растёт. Мы создали панель лицензирования для защиты PHP скриптов от воровства и SEO панель для мониторинга наших сайтов и выбора верной стратегии их развития. Мы надеемся что то что мы создали пригодится Вам и возможно Вы поможете нам развиваться и совершенствоваться вместе с Вами.

Статистика форума

Темы
347.658
Сообщения
373.558
Пользователи
28.925
Новый пользователь
Shinder

Приложения форума для iOS и Android


У ркн там нет власти ;)