За последнюю неделю опубликовано 72 новых материалов.
Инструкция новичку Путеводитель по форуму Прокси для Telegram Показать подсказки , это бомба!

Скачать Аккорд - Золотая коллекция Ретро (2006) APE by гаврила бесплатно через торрент

  • Поучаствуй (в качестве покупателя) в любых пяти совместных покупках (кроме завершённых и "Моментальных") и получи группу "Новичок" навсегда -> ссылка на раздел
  • Получай до 480 рублей за каждого приглашенного пользователя!
    представляем Вам очередное расширение партнерской программы, подробности описаны тут -> ссылка
  • 90% материалов доступно к скачиванию после простой регистрации!
    Если же ты хочешь скачивать материалы без требования оставлять отзывы то получи группу "Новичок", 10 способов повышения описаны тут -> ссылка
  • К сожалению количество битых ссылок растет и мы уже не можем их оперативно восстанавливать поэтому просим помощи у каждого нашего пользователя.
    С сегодняшнего дня, за каждую восстановленную ссылку мы заплатим Вам.
    Подробнее тут -> ссылка
  • Перенесем твои заслуги с другого ресурса!
    Мы понимаем как сложно прокачивать аккаунты на форумах, вроде раскачал аккаунт, а тут появляется ресурс в 100 раз круче но тоже с системой прокачки и снова качать аккаунт...
    Предлагаем вам перенести Ваши заслуги на другом подобном ресурсе к нам.
    Подробности описаны тут -> ссылка
  • Вы можете получать по 2.5% с каждой покупки и продажи на маркете! Подробности в теме Партнёрская программа

Torrent_Bot

Торрент-Бот
Бот форума
4 Окт 2016
125
70
20
Трэклист:
1. Генералы песчаных карьеров (D.Caymmi - русск. текст Ю.Цейтлина)
2. Эхо (В.Купревич - А.Горохов)
3. Где-то за радугой (А.Кублинскис - А.Дмоховский)
4. Прекрасные девушки (К.Кротиль - И.Пикейзова)
5. Бубенцы (А.Кублинскис - И.Кашежева)
6. Кокороко (чилийская народная песня)
7. Плясовая (Б.Долинский - Ю.Каменецкий)
8. Белая лебёдушка (В.Гамалия - И.Шаферан)
9. Пешеход (П.Аедоницкий - Я.Халецкий)
10. Ноктюрн (А.Кублинскис - Ю.Брежгис, русск. текст Г.Горского)
11. Ты и я (Ж.Дельпеш,В.Сан - Л.Дербенёв)
12. Хлоп-хлоп (П.Бюль-бюль-оглы - М.Пляцковский)
13. Ваня-скоморох (В.Зубков - Б.Пургалин)
14. Люди говорят (турецкая народная песня - русск. текст Ю.Цейтлина)
15. Грустиночка (А.Мелитонян - О.Гаджикасимов)
16. Звездопад (А.Пахмутова - Н.Добронравов)
17. Возвращайся (алжирская народная песня/обр. В.Букина/ - русск. текст Ю.Цейтлина)
18. Пингвины (В.Купревич - А.горохов)
19. Назло (А.Флярковский - Р.Рождественский)
20. Песня об Одиссее (А.Зацепин - Л.Дербенёв)

Жанр:Retro
Год выпуска диска: 2006
Производитель диска: Россия
Аудио кодек: APE
Тип рипа: image+.cue
Битрейт аудио: lossless
Продолжительность: 57м 25с

Exact Audio Copy V0.99 prebeta 4 from 23. January 2008
Отчёт EAC об извлечении, выполненном 3. августа 2008, 22:39
"Аккорд" / Золотая коллекция ретро
Дисковод: Optiarc DVD RW AD-5170A Adapter: 0 ID: 0
Режим чтения : Достоверность
Использование точного потока : Да
Отключение кэша аудио : Да
Использование указателей C2 : Нет
Коррекция смещения при чтении : 48
Способность читать области Lead-in и Lead-out : Нет
Заполнение пропущенных сэмплов тишиной : Да
Удаление блоков с тишиной в начале и конце : Нет
При вычислениях CRC использовались нулевые сэмплы : Да
Интерфейс : Встроенный Win32-интерфейс для Win NT/2000
Выходной формат : Внутренние WAV-операции
Формат сэмплов : 44.100 Гц; 16 бит; стерео
TOC извлечённого CD
Трек | Старт | Длительность | Начальный сектор | Конечный сектор
---------------------------------------------------------------------
1 | 0:00.00 | 3:12.59 | 0 | 14458
2 | 3:12.59 | 2:39.73 | 14459 | 26456
3 | 5:52.57 | 2:35.57 | 26457 | 38138
4 | 8:28.39 | 2:42.16 | 38139 | 50304
5 | 11:10.55 | 2:46.60 | 50305 | 62814
6 | 13:57.40 | 2:37.51 | 62815 | 74640
7 | 16:35.16 | 2:13.72 | 74641 | 84687
8 | 18:49.13 | 4:04.51 | 84688 | 103038
9 | 22:53.64 | 2:14.73 | 103039 | 113161
10 | 25:08.62 | 3:29.56 | 113162 | 128892
11 | 28:38.43 | 3:00.62 | 128893 | 142454
12 | 31:39.30 | 2:12.73 | 142455 | 152427
13 | 33:52.28 | 2:27.45 | 152428 | 163497
14 | 36:19.73 | 2:30.20 | 163498 | 174767
15 | 38:50.18 | 3:32.17 | 174768 | 190684
16 | 42:22.35 | 3:09.37 | 190685 | 204896
17 | 45:31.72 | 3:51.13 | 204897 | 222234
18 | 49:23.10 | 2:06.41 | 222235 | 231725
19 | 51:29.51 | 3:12.25 | 231726 | 246150
20 | 54:42.01 | 2:41.16 | 246151 | 258241
Характеристики диапазона извлечения и сообщения об ошибках
Выбранный диапазон
Имя файла D:AudioАккорд - Золотая коллекция ретро.wav
Пиковый уровень 100.0 %
Качество диапазона 100.0 %
CRC копии EF895057
Копирование... OK
Ошибок не произошло
Конец отчёта
 

Вложения

  • 15,4 KB Просмотры: 1
    Личеров 0
    Сидеров 0
    Файлов 11
    Объем 352,9 MB
Ваш e-mail не будет опубликован. Он потребуется для подтверждения Вашего поста.
Оформление текста Нажмите «Ввод», чтобы отправить ответ.