За сегодня опубликовано 0 новых материалов.
Инструкция новичку Путеводитель по форуму Прокси для Telegram Показать подсказки , это бомба!

Скачать Аида Ведищева - Я песней, как ветром, наполню страну (2005) APE by гаврила бесплатно через торрент

  • Получай до 480 рублей за каждого приглашенного пользователя!
    представляем Вам очередное расширение партнерской программы, подробности описаны тут -> ссылка
  • 90% материалов доступно к скачиванию после простой регистрации!
    Если же ты хочешь скачивать материалы без требования оставлять отзывы то получи группу "Новичок", 10 способов повышения описаны тут -> ссылка
  • К сожалению количество битых ссылок растет и мы уже не можем их оперативно восстанавливать поэтому просим помощи у каждого нашего пользователя.
    С сегодняшнего дня, за каждую восстановленную ссылку мы заплатим Вам.
    Подробнее тут -> ссылка
  • Перенесем твои заслуги с другого ресурса!
    Мы понимаем как сложно прокачивать аккаунты на форумах, вроде раскачал аккаунт, а тут появляется ресурс в 100 раз круче но тоже с системой прокачки и снова качать аккаунт...
    Предлагаем вам перенести Ваши заслуги на другом подобном ресурсе к нам.
    Подробности описаны тут -> ссылка
  • Вы можете получать по 2.5% с каждой покупки и продажи на маркете! Подробности в теме Партнёрская программа

Torrent_Bot

Торрент-Бот
Бот форума
4 Окт 2016
125
32
20
Трэклист:
1. Товарищ (О.Иванов - А.Прокофьев)
2. Любовь (О.Фельцман - Н.Олев)
3. Наша юность (О.Иванов - Я.Шведов)
4. Девчонки в туфельках идут (М.Табачников - неизв. автор)
5. Будешь ты (С.Ковальский - В.Сергеев)
6. Две души (В.Шаинский - С.Островой)
7. Военные оркестры (В.Махлянкин - неизв. автор)
8. У тихой реки (С.Ривкин)
9. Когда любовь жива (Т.Косма - В.Сергеев)
10. Журавли (Э.Ханок - А.Пришелец)
11. Две минуты (Э.Ханок - Д.Костюрин)
12. Рассвет (С.Дьячков - неизв. автор)
13. Элефтерия - это значит по-русски свобода (О.Фельцман - Ц.Солодарь)
14. На рассвете (Ю.Казарян - В.Саакова)
15. Я о сердце своём говорю (И.Гранов - Э.Радов)
16. Надежда, Вера, Любовь (Влади де Вам, А.Ведищева - А.Ведищева)
17. Солдатский котелок (Влади де Вам, А.Ведищева - Э.Варес)


Жанр:Retro
Год выпуска диска: 2005
Производитель диска: Россия
Аудио кодек: APE
Тип рипа: image+.cue
Битрейт аудио: lossless
Продолжительность: 54м 23с

Exact Audio Copy V0.99 prebeta 4 from 23. January 2008
Отчёт EAC об извлечении, выполненном 20. июля 2008, 15:26
Аида Ведищева / Я песней, как ветром,наполню страну
Дисковод: Optiarc DVD RW AD-5170A Adapter: 0 ID: 0
Режим чтения : Достоверность
Использование точного потока : Да
Отключение кэша аудио : Да
Использование указателей C2 : Нет
Коррекция смещения при чтении : 48
Способность читать области Lead-in и Lead-out : Нет
Заполнение пропущенных сэмплов тишиной : Да
Удаление блоков с тишиной в начале и конце : Нет
При вычислениях CRC использовались нулевые сэмплы : Да
Интерфейс : Встроенный Win32-интерфейс для Win NT/2000
Выходной формат : Внутренние WAV-операции
Формат сэмплов : 44.100 Гц; 16 бит; стерео
TOC извлечённого CD
Трек | Старт | Длительность | Начальный сектор | Конечный сектор
---------------------------------------------------------------------
1 | 0:00.00 | 3:10.15 | 0 | 14264
2 | 3:10.15 | 3:50.63 | 14265 | 31577
3 | 7:01.03 | 2:54.15 | 31578 | 44642
4 | 9:55.18 | 2:41.16 | 44643 | 56733
5 | 12:36.34 | 2:50.02 | 56734 | 69485
6 | 15:26.36 | 4:28.62 | 69486 | 89647
7 | 19:55.23 | 2:47.03 | 89648 | 102175
8 | 22:42.26 | 3:22.36 | 102176 | 117361
9 | 26:04.62 | 2:11.63 | 117362 | 127249
10 | 28:16.50 | 4:40.42 | 127250 | 148291
11 | 32:57.17 | 2:05.35 | 148292 | 157701
12 | 35:02.52 | 2:00.33 | 157702 | 166734
13 | 37:03.10 | 3:15.70 | 166735 | 181429
14 | 40:19.05 | 3:01.45 | 181430 | 195049
15 | 43:20.50 | 3:06.09 | 195050 | 209008
16 | 46:26.59 | 3:17.68 | 209009 | 223851
17 | 49:44.52 | 4:36.67 | 223852 | 244618
Характеристики диапазона извлечения и сообщения об ошибках
Выбранный диапазон
Имя файла D:AudioАида Ведищева - Я песней, как ветром,наполню страну.wav
Пиковый уровень 100.0 %
Качество диапазона 100.0 %
CRC копии 203ED6ED
Копирование... OK
Ошибок не произошло
Конец отчёта
 

Вложения

  • 13,7 KB Просмотры: 0
    Личеров 0
    Сидеров 0
    Файлов 10
    Объем 305 MB
Ваш e-mail не будет опубликован. Он потребуется для подтверждения Вашего поста.
Оформление текста Нажмите «Ввод», чтобы отправить ответ.