За последнюю неделю опубликовано 96 новых материалов.
Инструкция новичку Путеводитель по форуму Прокси для Telegram Показать подсказки , это бомба!

Особые Рубаки / Slayers Special / Slayers: The Book of Spells [OVA] (1996) BDRip 1080 | Persona99

  • Поучаствуй (в качестве покупателя) в любых пяти совместных покупках (кроме завершённых и "Моментальных") и получи группу "Новичок" навсегда -> ссылка на раздел
  • Получай до 480 рублей за каждого приглашенного пользователя!
    представляем Вам очередное расширение партнерской программы, подробности описаны тут -> ссылка
  • 90% материалов доступно к скачиванию после простой регистрации!
    Если же ты хочешь скачивать материалы без требования оставлять отзывы то получи группу "Новичок", 10 способов повышения описаны тут -> ссылка
  • К сожалению количество битых ссылок растет и мы уже не можем их оперативно восстанавливать поэтому просим помощи у каждого нашего пользователя.
    С сегодняшнего дня, за каждую восстановленную ссылку мы заплатим Вам.
    Подробнее тут -> ссылка
  • Перенесем твои заслуги с другого ресурса!
    Мы понимаем как сложно прокачивать аккаунты на форумах, вроде раскачал аккаунт, а тут появляется ресурс в 100 раз круче но тоже с системой прокачки и снова качать аккаунт...
    Предлагаем вам перенести Ваши заслуги на другом подобном ресурсе к нам.
    Подробности описаны тут -> ссылка
  • Вы можете получать по 2.5% с каждой покупки и продажи на маркете! Подробности в теме Партнёрская программа

Torrent_Bot

Торрент-Бот
Бот форума
4 Окт 2016
125
61
20

Особые Рубаки / Slayers Special / Slayers: The Book of Spells



Страна: Япония
Год выпуска: 1996
Жанр: приключения, комедия, фэнтези
Тип: OVA
Продолжительность: 3 эп. по 00:~29:00 мин
Режиссер: Ватанабэ Хироси
Студия: J.C. Staff

Описание:
Очередные приключения неугомонных волшебниц Лины Инверс и Наги Змеюки. В трех OVA (The Scary Chimera Plan, Jeffrey's Knighthood, Mirror, Mirror) Лине с Нагой прийдется противостоять злобному волшебнику, задумавшему сделать из Лины химеру, учить уму-разуму маменькиного сынка Джеффри и идти в поиски за волшебным зеркалом, создающим копии людей, противоположные оригиналам.

Доп. информация:
Релиз GSGroup


Качество: BDRip
Тип релиза: Без хардсаба
Формат видео: MP4
Автор рипа: [Rare]
Видео: x264, 1440x1080, ~2912 Kbps, 23.976 fps, 10 bits
Аудио 1: AAC, 192 Kbps, 48.0 KHz, 2 channels Язык Русский (в составе контейнера) ; Озвучка: Любительский одноголосый (Persona99)
Аудио 2: AAC, ~140 Kbps, 48.0 KHz, 2 channels Язык Японский ; Озвучка 2: оригинал
Субтитры 1: внешние ass, srt Язык субтитров русский ; Перевод: Baka Voice
Субтитры 2: внешние ass Язык субтитров английский ; Перевод 2: хз
Подробные тех. данные
General
Complete name : Slayers OVA-1 The Book of Spells (1996)1. Slayers Special OVA [1996] - [Persona99.GSG](BD1080.h264.Hi10p.AAC).rus.jpn.mp4
Format : MPEG-4
Format profile : Base Media
Codec ID : isom
File size : 676 MiB
Duration : 29mn 5s
Overall bit rate mode : Variable
Overall bit rate : 3 248 Kbps
Encoded date : UTC 2019-05-19 12:57:00
Tagged date : UTC 2019-05-19 12:57:00
Writing application : Yamb 2.1.0.0 [Yamb » Yet Another MP4Box UI]

Video
ID : 1
Format : AVC
Format/Info : Advanced Video Codec
Format profile : High [email protected]
Format settings, CABAC : Yes
Format settings, ReFrames : 4 frames
Codec ID : avc1
Codec ID/Info : Advanced Video Coding
Duration : 29mn 5s
Bit rate : 2 912 Kbps
Maximum bit rate : 12.6 Mbps
Width : 1 440 pixels
Height : 1 080 pixels
Display aspect ratio : 4:3
Frame rate mode : Constant
Frame rate : 23.976 fps
Color space : YUV
Chroma subsampling : 4:2:0
Bit depth : 10 bits
Scan type : Progressive
Bits/(Pixel*Frame) : 0.078
Stream size : 606 MiB (90%)
Writing library : x264 core 148 r2638 7599210
Encoding settings : cabac=1 / ref=5 / deblock=1:1:0 / analyse=0x3:0x113 / me=umh / subme=7 / psy=1 / psy_rd=1.00:0.00 / mixed_ref=1 / me_range=16 / chroma_me=1 / trellis=2 / 8x8dct=1 / cqm=0 / deadzone=21,11 / fast_pskip=1 / chroma_qp_offset=-2 / threads=8 / lookahead_threads=2 / sliced_threads=0 / nr=0 / decimate=1 / interlaced=0 / bluray_compat=0 / constrained_intra=0 / bframes=5 / b_pyramid=1 / b_adapt=2 / b_bias=0 / direct=2 / weightb=1 / open_gop=0 / weightp=2 / keyint=250 / keyint_min=23 / scenecut=40 / intra_refresh=0 / rc=crf / mbtree=0 / crf=23.0 / qcomp=1.00 / qpmin=0 / qpmax=81 / qpstep=4 / ip_ratio=1.40 / pb_ratio=1.30 / aq=1:1.00
Encoded date : UTC 2019-05-19 12:57:00
Tagged date : UTC 2019-05-19 12:57:14

Audio #1
ID : 2
Format : AAC
Format/Info : Advanced Audio Codec
Format profile : LC
Codec ID : 40
Duration : 29mn 5s
Bit rate mode : Variable
Bit rate : 192 Kbps
Maximum bit rate : 199 Kbps
Channel(s) : 2 channels
Channel positions : Front: L R
Sampling rate : 48.0 KHz
Compression mode : Lossy
Stream size : 40.0 MiB (6%)
Title : Persona99
Language : Russian
Encoded date : UTC 2019-05-19 12:57:12
Tagged date : UTC 2019-05-19 12:57:14

Audio #2
ID : 3
Format : AAC
Format/Info : Advanced Audio Codec
Format profile : HE-AAC / LC
Codec ID : 40
Duration : 29mn 5s
Bit rate mode : Variable
Bit rate : 139 Kbps
Maximum bit rate : 157 Kbps
Channel(s) : 2 channels
Channel positions : Front: L R
Sampling rate : 48.0 KHz / 24.0 KHz
Compression mode : Lossy
Stream size : 29.0 MiB (4%)
Language : Japanese
Encoded date : UTC 2019-05-19 12:57:12
Tagged date : UTC 2019-05-19 12:57:14
Список эпизодов
01. Scary Chimera Plan
02. Jeffery's Knighthood
03. Mirror, Mirror
Скриншоты

Семпл:
 

Вложения

  • 21,7 KB Просмотры: 1
    Личеров 0
    Сидеров 0
    Файлов 9
    Объем 1,9 GB
Ваш e-mail не будет опубликован. Он потребуется для подтверждения Вашего поста.
Оформление текста Нажмите «Ввод», чтобы отправить ответ.

Привет!

Мы группа людей которые решили помочь другим в решении их проблем, а так же пользователям с поиском самых свежих и качественных инфопродуктов. За 4 с небольшим месяца мы создали этот форум на который заходят ежедневно тысячи человек и посещаемость постоянно растёт. Мы создали панель лицензирования для защиты PHP скриптов от воровства и SEO панель для мониторинга наших сайтов и выбора верной стратегии их развития. Мы надеемся что то что мы создали пригодится Вам и возможно Вы поможете нам развиваться и совершенствоваться вместе с Вами.

Статистика форума

Темы
359.705
Сообщения
392.823
Пользователи
39.073
Новый пользователь
Tatiana_X

Приложения форума для iOS и Android


У ркн там нет власти ;)