За последнюю неделю опубликовано 165 новых материалов.
Инструкция новичку Путеводитель по форуму Прокси для Telegram Показать подсказки , это бомба!

Нет выхода / No Way Out (1987) BDRip-HEVC 1080p | D, P, P2, A

  • Поучаствуй (в качестве покупателя) в любых пяти совместных покупках (кроме завершённых и "Моментальных") и получи группу "Новичок" навсегда -> ссылка на раздел
  • Получай до 480 рублей за каждого приглашенного пользователя!
    представляем Вам очередное расширение партнерской программы, подробности описаны тут -> ссылка
  • 90% материалов доступно к скачиванию после простой регистрации!
    Если же ты хочешь скачивать материалы без требования оставлять отзывы то получи группу "Новичок", 10 способов повышения описаны тут -> ссылка
  • К сожалению количество битых ссылок растет и мы уже не можем их оперативно восстанавливать поэтому просим помощи у каждого нашего пользователя.
    С сегодняшнего дня, за каждую восстановленную ссылку мы заплатим Вам.
    Подробнее тут -> ссылка
  • Перенесем твои заслуги с другого ресурса!
    Мы понимаем как сложно прокачивать аккаунты на форумах, вроде раскачал аккаунт, а тут появляется ресурс в 100 раз круче но тоже с системой прокачки и снова качать аккаунт...
    Предлагаем вам перенести Ваши заслуги на другом подобном ресурсе к нам.
    Подробности описаны тут -> ссылка
  • Вы можете получать по 2.5% с каждой покупки и продажи на маркете! Подробности в теме Партнёрская программа
Если Вы не хотите скачивать, Вы всегда можетепосмотретьонлайн, просто нажмите кнопку ниже :

Открыть плеер

Torrent_Bot

Торрент-Бот
Бот форума
4 Окт 2016
125
60
20



Название: Нет выхода
Оригинальное название: No Way Out
Год выхода: 1987
Жанр: триллер, драма, детектив
Режиссер: Роджер Дональдсон
В ролях: Кевин Костнер, Джин Хэкмен, Шон Янг, Уилл Пэттон, Джордж Дзундза, Джейсон Бернард, Иман, Фред Долтон Томпсон, Леон Рассом, Говард Дафф

О фильме: Том Фаррелл - офицер военно-морского флота, который проходит службу в Пентагоне и подчиняется министру обороны Дэвиду Брайсу. Том начинает роман с Сьюзен Этвелл, не зная, что она любовница Брайса. Когда Сьюзен найдена мертвой, Тому поручают найти убийцу, которого все называют Юрием и который считается глубоко законспирированным агентом КГБ. Вскоре Том становится подозреваемым, так как у Сьюзен был найден негатив его снимка на Полароид. Теперь у него есть всего несколько часов, чтобы найти убийцу, прежде чем компьютер восстановит фотографию.



Страна: США
Студия: Orion Pictures
Продолжительность: 01:54:22
Перевод: Дублированный, Профессиональный многоголосый, Профессиональный двухголосый, авторский одноголосый

Качество: BDRip-HEVC 1080p
Кодек: HEVC (x265)
Видео: 1920x1040 (1.85:1), 11,4 Мбит/сек, 0.238 бит/(Пиксели*Кадры), 23.976 (24000/1001) кадр/сек, HEVC ([email protected]@High) 10 бит
Звук:
Аудио1: AC3, 2 ch, 192 Kbps Русский, Дублированный ("Синхрон")
Аудио2: AC3, 2 ch, 192 Kbps Русский, Многоголосый (ТК "Домашний")
Аудио3: AC3, 2 ch, 192 Kbps Русский, Многоголосый (5-й канал)
Аудио4: AC3, 2 ch, 192 Kbps Русский, Двухголосый (НТВ)
Аудио5: AC3, 2 ch, 192 Kbps Русский, Двухголосый (НТВ+)
Аудио6: AC3, 6 ch, 640 Kbps Русский, Авторский (Андрей Гаврилов, поздний)
Аудио7: AC3, 6 ch, 640 Kbps Русский, Авторский (Юрий Живов)
Аудио8: AC3, 2 ch, 192 Kbps Русский, Авторский (Андрей Гаврилов, ранний)
Аудио9: AC3, 2 ch, 192 Kbps Русский, Авторский (Сергей Дьяков)
Аудио10: AC3, 6 ch, 640 Kbps English, Original
Субтитры: отсутствуют
Навигация по главам: Есть

Mediainfo
x265 [info]: frame I: 1236, Avg QP:17.43 kb/s: 28280.23
x265 [info]: frame P: 31809, Avg QP:18.76 kb/s: 18976.13
x265 [info]: frame B: 131496, Avg QP:20.75 kb/s: 9405.93
x265 [info]: Weighted P-Frames: Y:9.3% UV:7.0%
x265 [info]: Weighted B-Frames: Y:7.2% UV:5.1%
x265 [info]: consecutive B-frames: 5.1% 2.2% 5.1% 24.3% 12.3% 46.0% 3.2% 1.1% 0.3% 0.1% 0.1% 0.2%
x265 [info]: encoded 164541 frames in 242207.04s (0.68 fps), 11397.81 kb/s, Avg QP:20.34

Формат : Matroska
Версия формата : Version 4
Размер файла : 11,7 Гбайт
Продолжительность : 1 ч. 54 м.
Общий поток : 14,7 Мбит/сек
Название фильма : no way out
Дата кодирования : UTC 2019-05-19 09:32:35
Программа кодирования : mkvmerge v34.0.0 ('Sight and Seen') 64-bit
Библиотека кодирования : libebml v1.3.7 + libmatroska v1.5.0

Видео
Идентификатор : 1
Формат : HEVC
Формат/Информация : High Efficiency Video Coding
Профиль формата : Main [email protected]@High
Идентификатор кодека : V_MPEGH/ISO/HEVC
Продолжительность : 1 ч. 54 м.
Битрейт : 11,4 Мбит/сек
Ширина : 1920 пикселей
Высота : 1040 пикселей
Соотношение сторон : 1,85:1
Режим частоты кадров : Постоянный
Частота кадров : 23,976 (24000/1001) кадра/сек
Цветовое пространство : YUV
Субдискретизация насыщенности : 4:2:0
Битовая глубина : 10 бит
Бит/(Пиксели*Кадры) : 0.238
Размер потока : 9,11 Гбайт (78%)
Заголовок : No Way Out / Rip by OldGamer
Библиотека кодирования : x265 2.9+15-81373aab81df:[Windows][GCC 8.2.0][64 bit] 10bit
Настройки программы : cpuid=1111039 / frame-threads=3 / numa-pools=12 / wpp / no-pmode / no-pme / no-psnr / no-ssim / log-level=2 / input-csp=1 / input-res=1920x1040 / interlace=0 / total-frames=164541 / level-idc=41 / high-tier=1 / uhd-bd=0 / ref=5 / no-allow-non-conformance / no-repeat-headers / annexb / no-aud / no-hrd / info / hash=0 / no-temporal-layers / open-gop / min-keyint=23 / keyint=240 / gop-lookahead=0 / bframes=11 / b-adapt=2 / b-pyramid / bframe-bias=0 / rc-lookahead=60 / lookahead-slices=0 / scenecut=40 / radl=0 / no-splice / no-intra-refresh / ctu=64 / min-cu-size=8 / rect / amp / max-tu-size=32 / tu-inter-depth=4 / tu-intra-depth=4 / limit-tu=1 / rdoq-level=2 / dynamic-rd=0.00 / no-ssim-rd / signhide / no-tskip / nr-intra=0 / nr-inter=0 / no-constrained-intra / no-strong-intra-smoothing / max-merge=5 / limit-refs=1 / limit-modes / me=3 / subme=7 / merange=57 / temporal-mvp / weightp / weightb / no-analyze-src-pics / deblock=-3:-3 / no-sao / no-sao-non-deblock / rd=6 / no-early-skip / rskip / no-fast-intra / no-tskip-fast / no-cu-lossless / b-intra / no-splitrd-skip / rdpenalty=0 / psy-rd=2.00 / psy-rdoq=1.20 / no-rd-refine / no-lossless / cbqpoffs=0 / crqpoffs=0 / rc=crf / crf=19.0 / qcomp=0.60 / qpstep=4 / stats-write=0 / stats-read=0 / vbv-maxrate=50000 / vbv-bufsize=50000 / vbv-init=0.9 / crf-max=0.0 / crf-min=0.0 / ipratio=1.40 / pbratio=1.30 / aq-mode=2 / aq-strength=0.80 / no-cutree / zone-count=0 / no-strict-cbr / qg-size=32 / no-rc-grain / qpmax=69 / qpmin=0 / no-const-vbv / sar=1 / overscan=0 / videoformat=5 / range=0 / colorprim=2 / transfer=2 / colormatrix=2 / chromaloc=0 / display-window=0 / max-cll=0,0 / min-luma=0 / max-luma=1023 / log2-max-poc-lsb=8 / vui-timing-info / vui-hrd-info / slices=1 / no-opt-qp-pps / no-opt-ref-list-length-pps / no-multi-pass-opt-rps / scenecut-bias=0.05 / no-opt-cu-delta-qp / no-aq-motion / no-hdr / no-hdr-opt / no-dhdr10-opt / no-idr-recovery-sei / analysis-reuse-level=5 / scale-factor=0 / refine-intra=0 / refine-inter=0 / refine-mv=0 / no-limit-sao / ctu-info=0 / no-lowpass-dct / refine-mv-type=0 / copy-pic=1 / max-ausize-factor=1.0 / no-dynamic-refine / no-single-sei
Язык : English
Default : Да
Forced : Нет

Аудио #1
Идентификатор : 2
Формат : AC-3
Формат/Информация : Audio Coding 3
Коммерческое название : Dolby Digital
Идентификатор кодека : A_AC3
Продолжительность : 1 ч. 54 м.
Вид битрейта : Постоянный
Битрейт : 192 Кбит/сек
Каналы : 2 канала
Channel layout : L R
Частота : 48,0 КГц
Частота кадров : 31,250 кадров/сек (1536 SPF)
Битовая глубина : 16 бит
Метод сжатия : С потерями
Размер потока : 157 Мбайт (1%)
Заголовок : DUB (Sinhron studios)
Язык : Russian
ServiceKind/ : Complete Main
Default : Да
Forced : Нет

Аудио #2
Идентификатор : 3
Формат : AC-3
Формат/Информация : Audio Coding 3
Коммерческое название : Dolby Digital
Идентификатор кодека : A_AC3
Продолжительность : 1 ч. 54 м.
Вид битрейта : Постоянный
Битрейт : 192 Кбит/сек
Каналы : 2 канала
Channel layout : L R
Частота : 48,0 КГц
Частота кадров : 31,250 кадров/сек (1536 SPF)
Битовая глубина : 16 бит
Метод сжатия : С потерями
Размер потока : 157 Мбайт (1%)
Заголовок : MVO (TK Domashniy)
Язык : Russian
ServiceKind/ : Complete Main
Default : Нет
Forced : Нет

Аудио #3
Идентификатор : 4
Формат : AC-3
Формат/Информация : Audio Coding 3
Коммерческое название : Dolby Digital
Идентификатор кодека : A_AC3
Продолжительность : 1 ч. 54 м.
Вид битрейта : Постоянный
Битрейт : 192 Кбит/сек
Каналы : 2 канала
Channel layout : L R
Частота : 48,0 КГц
Частота кадров : 31,250 кадров/сек (1536 SPF)
Битовая глубина : 16 бит
Метод сжатия : С потерями
Размер потока : 157 Мбайт (1%)
Заголовок : MVO (Petersburg, 5 channel)
Язык : Russian
ServiceKind/ : Complete Main
Default : Нет
Forced : Нет

Аудио #4
Идентификатор : 5
Формат : AC-3
Формат/Информация : Audio Coding 3
Коммерческое название : Dolby Digital
Идентификатор кодека : A_AC3
Продолжительность : 1 ч. 54 м.
Вид битрейта : Постоянный
Битрейт : 192 Кбит/сек
Каналы : 2 канала
Channel layout : L R
Частота : 48,0 КГц
Частота кадров : 31,250 кадров/сек (1536 SPF)
Битовая глубина : 16 бит
Метод сжатия : С потерями
Размер потока : 157 Мбайт (1%)
Заголовок : DVO (NTV)
Язык : Russian
ServiceKind/ : Complete Main
Default : Нет
Forced : Нет

Аудио #5
Идентификатор : 6
Формат : AC-3
Формат/Информация : Audio Coding 3
Коммерческое название : Dolby Digital
Идентификатор кодека : A_AC3
Продолжительность : 1 ч. 54 м.
Вид битрейта : Постоянный
Битрейт : 192 Кбит/сек
Каналы : 2 канала
Channel layout : L R
Частота : 48,0 КГц
Частота кадров : 31,250 кадров/сек (1536 SPF)
Битовая глубина : 16 бит
Метод сжатия : С потерями
Размер потока : 157 Мбайт (1%)
Заголовок : DVO (NTV+)
Язык : Russian
ServiceKind/ : Complete Main
Default : Нет
Forced : Нет

Аудио #6
Идентификатор : 7
Формат : AC-3
Формат/Информация : Audio Coding 3
Коммерческое название : Dolby Digital
Идентификатор кодека : A_AC3
Продолжительность : 1 ч. 54 м.
Вид битрейта : Постоянный
Битрейт : 640 Кбит/сек
Каналы : 6 каналов
Channel layout : L R C LFE Ls Rs
Частота : 48,0 КГц
Частота кадров : 31,250 кадров/сек (1536 SPF)
Битовая глубина : 16 бит
Метод сжатия : С потерями
Размер потока : 524 Мбайт (4%)
Заголовок : AVO (Andrey Gavrilov) - late
Язык : Russian
ServiceKind/ : Complete Main
Default : Нет
Forced : Нет

Аудио #7
Идентификатор : 8
Формат : AC-3
Формат/Информация : Audio Coding 3
Коммерческое название : Dolby Digital
Идентификатор кодека : A_AC3
Продолжительность : 1 ч. 54 м.
Вид битрейта : Постоянный
Битрейт : 640 Кбит/сек
Каналы : 6 каналов
Channel layout : L R C LFE Ls Rs
Частота : 48,0 КГц
Частота кадров : 31,250 кадров/сек (1536 SPF)
Битовая глубина : 16 бит
Метод сжатия : С потерями
Размер потока : 524 Мбайт (4%)
Заголовок : AVO (Yuri Zhivov)
Язык : Russian
ServiceKind/ : Complete Main
Default : Нет
Forced : Нет

Аудио #8
Идентификатор : 9
Формат : AC-3
Формат/Информация : Audio Coding 3
Коммерческое название : Dolby Digital
Идентификатор кодека : A_AC3
Продолжительность : 1 ч. 54 м.
Вид битрейта : Постоянный
Битрейт : 192 Кбит/сек
Каналы : 2 канала
Channel layout : L R
Частота : 48,0 КГц
Частота кадров : 31,250 кадров/сек (1536 SPF)
Битовая глубина : 16 бит
Метод сжатия : С потерями
Размер потока : 157 Мбайт (1%)
Заголовок : AVO (Andrey Gavrilov) - early
Язык : Russian
ServiceKind/ : Complete Main
Default : Нет
Forced : Нет

Аудио #9
Идентификатор : 10
Формат : AC-3
Формат/Информация : Audio Coding 3
Коммерческое название : Dolby Digital
Идентификатор кодека : A_AC3
Продолжительность : 1 ч. 54 м.
Вид битрейта : Постоянный
Битрейт : 192 Кбит/сек
Каналы : 2 канала
Channel layout : L R
Частота : 48,0 КГц
Частота кадров : 31,250 кадров/сек (1536 SPF)
Битовая глубина : 16 бит
Метод сжатия : С потерями
Размер потока : 157 Мбайт (1%)
Заголовок : AVO (Sergey Dyakov)
Язык : Russian
ServiceKind/ : Complete Main
Default : Нет
Forced : Нет

Аудио #10
Идентификатор : 11
Формат : AC-3
Формат/Информация : Audio Coding 3
Коммерческое название : Dolby Digital
Идентификатор кодека : A_AC3
Продолжительность : 1 ч. 54 м.
Вид битрейта : Постоянный
Битрейт : 640 Кбит/сек
Каналы : 6 каналов
Channel layout : L R C LFE Ls Rs
Частота : 48,0 КГц
Частота кадров : 31,250 кадров/сек (1536 SPF)
Битовая глубина : 16 бит
Метод сжатия : С потерями
Размер потока : 524 Мбайт (4%)
Заголовок : English
Язык : English
ServiceKind/ : Complete Main
Default : Нет
Forced : Нет

Меню
00:00:00.000 : en:Chapter 01
00:09:58.472 : en:Chapter 02
00:20:32.314 : en:Chapter 03
00:31:48.781 : en:Chapter 04
00:39:35.748 : en:Chapter 05
00:49:11.698 : en:Chapter 06
00:57:47.630 : en:Chapter 07
01:07:54.612 : en:Chapter 08
01:16:07.646 : en:Chapter 09
01:25:05.934 : en:Chapter 10
01:33:20.219 : en:Chapter 11
01:42:26.807 : en:Chapter 12
01:54:21.479 : en:Chapter 13
Скриншоты


Автор: OldGamer
 

Вложения

  • 30,4 KB Просмотры: 1
    Личеров 0
    Сидеров 0
    Файлов 1
    Объем 11,7 GB
Ваш e-mail не будет опубликован. Он потребуется для подтверждения Вашего поста.
Оформление текста Нажмите «Ввод», чтобы отправить ответ.

Привет!

Мы группа людей которые решили помочь другим в решении их проблем, а так же пользователям с поиском самых свежих и качественных инфопродуктов. За 4 с небольшим месяца мы создали этот форум на который заходят ежедневно тысячи человек и посещаемость постоянно растёт. Мы создали панель лицензирования для защиты PHP скриптов от воровства и SEO панель для мониторинга наших сайтов и выбора верной стратегии их развития. Мы надеемся что то что мы создали пригодится Вам и возможно Вы поможете нам развиваться и совершенствоваться вместе с Вами.

Статистика форума

Темы
359.674
Сообщения
392.670
Пользователи
38.885
Новый пользователь
Alex69zn

Приложения форума для iOS и Android


У ркн там нет власти ;)