За последнюю неделю опубликовано 115 новых материалов.
Инструкция новичку Путеводитель по форуму Прокси для Telegram Показать подсказки , это бомба!

Битва за Севастополь (2015) BDRip-AVC от ExKinoRay | Ger Transfer

  • Поучаствуй (в качестве покупателя) в любых пяти совместных покупках (кроме завершённых и "Моментальных") и получи группу "Новичок" навсегда -> ссылка на раздел
  • Получай до 480 рублей за каждого приглашенного пользователя!
    представляем Вам очередное расширение партнерской программы, подробности описаны тут -> ссылка
  • 90% материалов доступно к скачиванию после простой регистрации!
    Если же ты хочешь скачивать материалы без требования оставлять отзывы то получи группу "Новичок", 10 способов повышения описаны тут -> ссылка
  • К сожалению количество битых ссылок растет и мы уже не можем их оперативно восстанавливать поэтому просим помощи у каждого нашего пользователя.
    С сегодняшнего дня, за каждую восстановленную ссылку мы заплатим Вам.
    Подробнее тут -> ссылка
  • Перенесем твои заслуги с другого ресурса!
    Мы понимаем как сложно прокачивать аккаунты на форумах, вроде раскачал аккаунт, а тут появляется ресурс в 100 раз круче но тоже с системой прокачки и снова качать аккаунт...
    Предлагаем вам перенести Ваши заслуги на другом подобном ресурсе к нам.
    Подробности описаны тут -> ссылка
  • Вы можете получать по 2.5% с каждой покупки и продажи на маркете! Подробности в теме Партнёрская программа
Если Вы не хотите скачивать, Вы всегда можетепосмотретьонлайн, просто нажмите кнопку ниже :

Открыть плеер

Torrent_Bot

Торрент-Бот
Бот форума
4 Окт 2016
125
61
20


Информация о фильме
Название: Битва за Севастополь
Год выхода: 2015
Жанр: Военный, драма, мелодрама, боевик, история, биография
Режиссер: Сергей Мокрицкий
В ролях: Юлия Пересильд, Евгений Цыганов, Олег Васильков, Никита Тарасов, Джоан Блэкхэм, Полина Пахомова (II), Владимир Лилицкий, Анатолий Кот, Нателла Абелева-Таганова, Валерий Гришко, Сергей Барковский, Виталий Линецкий, Сергей Пускепалис, Геннадий Ченцов, Светлана Осадченко, Алла Сергийко, Станислав Боклан, Дмитрий Лаленков, Станислав Лесной, Сергей Сипливый, Никита Тезин, Сергей Радченко (III), Вячеслав Николенко, Светлана Косолапова, Антон Соловей, Николай Боклан, Александр Новосёлов, Александр Герелес, Александр Ярема, Александр Крыжановский, Алик Шпилюк, Инга Нагорная, Илья Прокопив, Владимир Скорик и др.

О фильме:
Военная драма, в основу которой положена биография одной из самых успешных женщин-снайперов в мировой истории - Людмилы Павличенко. Студенткой Киевского государственного университета Людмила проявляет недюжинные успехи в стрельбе в тире, и ее тут же записывают в стрелковую школу. Внезапно начавшаяся война не оставляет девушке выбора - ее ждет фронт и участие в тяжелейшей обороне в составе стрелкового отряда. Выполняя задание за заданием, эта хрупкая и одновременно сильная молодая женщина ищет объяснение происходящему, чтобы не упасть духом и выстоять в войне.



Страна: Россия, Украина
Студия: Кинокомпания "Новые люди", ТОВ Студія "Кінороб"
Продолжительность: 02:02:52
Язык: Русский

Файл
Формат: MKV
Качество: BDRip-AVC (BDRemux 1080p)
Видео: MPEG-4 AVC, 784x328, - 771 Кбит/с
Аудио: AAC-HE, 2 ch, - 76 Кбит/с
Субтитры: Русские (форсированные)

MI
Общее
Уникальный идентификатор : 134746943024493794868345596614214832662 (0x655F51373378B26334C9D9DCBA2A5216)
Полное имя : D:MOVIESBitva.Za.Sevastopol.2015.ExKinoRay.mkv
Формат : Matroska
Версия формата : Version 4 / Version 2
Размер файла : 745 Мбайт
Продолжительность : 2 ч. 2 м.
Общий поток : 848 Кбит/сек
Дата кодирования : UTC 2019-05-09 15:11:20
Программа кодирования : mkvmerge v32.0.0 ('Astral Progressions') 64-bit
Библиотека кодирования : libebml v1.3.7 + libmatroska v1.5.0

Видео
Идентификатор : 1
Формат : AVC
Формат/Информация : Advanced Video Codec
Профиль формата : [email protected]
Параметр CABAC формата : Да
Параметр RefFrames формата : 12 кадров
Идентификатор кодека : V_MPEG4/ISO/AVC
Продолжительность : 2 ч. 2 м.
Битрейт : 771 Кбит/сек
Ширина : 784 пикселя
Высота : 328 пикселей
Соотношение сторон : 2,40:1
Режим частоты кадров : Постоянный
Частота кадров : 24,000 кадра/сек
Цветовое пространство : YUV
Субдискретизация насыщенности : 4:2:0
Битовая глубина : 8 бит
Тип развёртки : Прогрессивная
Бит/(Пиксели*Кадры) : 0.125
Размер потока : 677 Мбайт (91%)
Библиотека кодирования : x264 core 152 r2851 ba24899
Настройки программы : cabac=1 / ref=12 / deblock=1:-2:-2 / analyse=0x3:0x133 / me=umh / subme=11 / psy=1 / psy_rd=1.00:0.10 / mixed_ref=1 / me_range=32 / chroma_me=1 / trellis=2 / 8x8dct=1 / cqm=0 / deadzone=21,11 / fast_pskip=0 / chroma_qp_offset=-3 / threads=6 / lookahead_threads=1 / sliced_threads=0 / nr=0 / decimate=0 / interlaced=0 / bluray_compat=0 / constrained_intra=0 / bframes=12 / b_pyramid=2 / b_adapt=2 / b_bias=0 / direct=3 / weightb=1 / open_gop=0 / weightp=2 / keyint=240 / keyint_min=24 / scenecut=40 / intra_refresh=0 / rc=2pass / mbtree=0 / bitrate=771 / ratetol=1.0 / qcomp=0.60 / qpmin=0 / qpmax=69 / qpstep=4 / cplxblur=20.0 / qblur=0.5 / ip_ratio=1.40 / pb_ratio=1.30 / aq=1:1.00
Default : Да
Forced : Нет

Аудио
Идентификатор : 2
Формат : AAC
Формат/Информация : Advanced Audio Codec
Профиль формата : HE-AAC / LC
Идентификатор кодека : A_AAC
Продолжительность : 2 ч. 2 м.
Битрейт : 76,0 Кбит/сек
Каналы : 2 канала
Расположение каналов : Front: L R
Частота : 48,0 КГц / 24,0 КГц
Частота кадров : 23,438 кадра/сек (1024 SPF)
Метод сжатия : С потерями
Задержка видео : 31 мс.
Размер потока : 66,8 Мбайт (9%)
Язык : German
Default : Да
Forced : Нет

Текст
Идентификатор : 3
Формат : UTF-8
Идентификатор кодека : S_TEXT/UTF8
Идентификатор кодека/Информация : UTF-8 Plain Text
Продолжительность : 1 ч. 57 м.
Битрейт : 15 бит/сек
ElementCount : 228
Размер потока : 13,2 Кбайт (0%)
Заголовок : Forced
Язык : Russian
Default : Да
Forced : Да

Меню
00:00:00.000 : de:Chapter 01
00:10:08.916 : de:Chapter 02
00:18:13.333 : de:Chapter 03
00:26:37.250 : de:Chapter 04
00:36:05.375 : de:Chapter 05
00:46:11.166 : de:Chapter 06
00:53:33.791 : de:Chapter 07
01:02:41.416 : de:Chapter 08
01:13:43.958 : de:Chapter 09
01:21:31.208 : de:Chapter 10
01:30:22.625 : de:Chapter 11
01:43:18.333 : de:Chapter 12
01:59:19.875 : de:Chapter 13
02:02:49.666 : de:Chapter 14
Скриншоты

 

Вложения

  • 15,6 KB Просмотры: 1
    Личеров 0
    Сидеров 0
    Файлов 1
    Объем 745,1 MB
Ваш e-mail не будет опубликован. Он потребуется для подтверждения Вашего поста.
Оформление текста Нажмите «Ввод», чтобы отправить ответ.

Привет!

Мы группа людей которые решили помочь другим в решении их проблем, а так же пользователям с поиском самых свежих и качественных инфопродуктов. За 4 с небольшим месяца мы создали этот форум на который заходят ежедневно тысячи человек и посещаемость постоянно растёт. Мы создали панель лицензирования для защиты PHP скриптов от воровства и SEO панель для мониторинга наших сайтов и выбора верной стратегии их развития. Мы надеемся что то что мы создали пригодится Вам и возможно Вы поможете нам развиваться и совершенствоваться вместе с Вами.

Статистика форума

Темы
359.704
Сообщения
392.796
Пользователи
39.058
Новый пользователь
lysyena

Приложения форума для iOS и Android


У ркн там нет власти ;)