За сегодня опубликовано 0 новых материалов.
Инструкция новичку Путеводитель по форуму Прокси для Telegram Показать подсказки , это бомба!

Скачать 1+1: Голливудская история / The Upside (2018) BDRip 720p от k.e.n & MegaPeer | iTunes бесплатно через торрент

  • Получай до 480 рублей за каждого приглашенного пользователя!
    представляем Вам очередное расширение партнерской программы, подробности описаны тут -> ссылка
  • 90% материалов доступно к скачиванию после простой регистрации!
    Если же ты хочешь скачивать материалы без требования оставлять отзывы то получи группу "Новичок", 10 способов повышения описаны тут -> ссылка
  • К сожалению количество битых ссылок растет и мы уже не можем их оперативно восстанавливать поэтому просим помощи у каждого нашего пользователя.
    С сегодняшнего дня, за каждую восстановленную ссылку мы заплатим Вам.
    Подробнее тут -> ссылка
  • Перенесем твои заслуги с другого ресурса!
    Мы понимаем как сложно прокачивать аккаунты на форумах, вроде раскачал аккаунт, а тут появляется ресурс в 100 раз круче но тоже с системой прокачки и снова качать аккаунт...
    Предлагаем вам перенести Ваши заслуги на другом подобном ресурсе к нам.
    Подробности описаны тут -> ссылка
  • Вы можете получать по 2.5% с каждой покупки и продажи на маркете! Подробности в теме Партнёрская программа
Если Вы не хотите скачивать, Вы всегда можете посмотреть онлайн, просто нажмите кнопку ниже :

Открыть плеер

Torrent_Bot

Торрент-Бот
Бот форума
4 Окт 2016
125
43
20



Информация о фильме
Название: 1+1: Голливудская история
Оригинальное название: The Upside
Год выпуска: 2018
Жанр: Драма, комедия
Режиссер: Нил Бёргер
В ролях: Брайан Крэнстон, Кевин Харт, Николь Кидман, Эйджа Наоми Кинг, Джахи Диалло Уинстон, Женевьева Энджелсон, Голшифте Фарахани, Тейт Донован, Джулианна Маргулис, Сюзанн Савой, Майкл Куинлэн, Рэйчел Кристофер, Диего Агирр, Фернандо Матео мл., Кимберли С. Фербенкс, Рэйчел Алана Хэндлер, Рики Гарсиа, Дж.Дж. Филлипс, Амара Каран

О фильме:
У интеллигентного богача Филиппа (Брайан Крэнстон) есть все, что можно купить за деньги: роскошный дом, дорогие автомобили, произведения искусства. Жаль только, что за деньги не купишь машину времени — в результате несчастного случая на параплане Филипп стал инвалидом. Но это не самое страшное: его жена приземлилась еще более неудачно и отбыла в мир иной. Несмотря на то что Филипп как-то оправился, боль от потери не отпускает его. Он стал равнодушен к жизни и тем более к смерти, убедив свою управляющую Ивонну (Николь Кидман) подписать отказ от реанимации на случай, если с ним что-нибудь случится. Все меняется, когда Филипп начинает подыскивать нового помощника по уходу. Из вереницы скучных и местами откровенно странных вариантов ему выпадает козырная карта — темнокожий парень по имени Дэлл (Кевин Харт)

Американский ремейк хитовой французской комедии «1+1».


Страна: США
Студия: Lantern Entertainment (II), The Weinstein Company
Продолжительность: 02:05:50
Перевод: Дублированный | iTunes

Файл
Формат: MKV
Качество: BDRip 720p
Видео: AVC, 1280x692, 23.976 fps, 4077 kbps
Аудио #1: AC3, 48 kHz, 6 ch, 384 kbps (Russian)
Аудио #2: AC3, 48 kHz, 6 ch, 448 kbps (English)
Субтитры: Russian, English

Релиз от: &

Скриншоты:

x264
x264 [info]: frame I:1576 Avg QP:15.87 size:119969 PSNR Mean Y:47.71 U:50.87 V:51.78 Avg:48.56 Global:47.98
x264 [info]: frame P:39652 Avg QP:18.44 size: 39340 PSNR Mean Y:46.44 U:50.62 V:52.52 Avg:47.44 Global:46.51
x264 [info]: frame B:139797 Avg QP:19.22 size: 14991 PSNR Mean Y:45.68 U:49.80 V:51.07 Avg:46.67 Global:45.71
MediaInfo:
Полное имя : C:1+1. Голливудская история.2019 (Б.Кренстон, К.Харт).mkv
Формат : Matroska
Версия формата : Version 2
Размер файла : 4,31 Гбайт
Продолжительность : 2 ч. 5 м.
Общий поток : 4908 Кбит/сек
Название фильма : k.e.n & MegaPeer
Дата кодирования : UTC 2019-05-07 19:17:34
Программа кодирования : mkvmerge v5.3.0 ('I could have danced') built on Feb 9 2012 10:38:07
Библиотека кодирования : libebml v1.2.3 + libmatroska v1.3.0
Обложка : Yes
Attachments : cover _2.jpg

Видео
Идентификатор : 1
Формат : AVC
Формат/Информация : Advanced Video Codec
Профиль формата : [email protected]
Параметр CABAC формата : Да
Параметр ReFrames формата : 9 кадров
Идентификатор кодека : V_MPEG4/ISO/AVC
Продолжительность : 2 ч. 5 м.
Битрейт : 4077 Кбит/сек
Ширина : 1280 пикселей
Высота : 692 пикселя
Соотношение сторон : 1,85:1
Режим частоты кадров : Постоянный
Частота кадров : 23,976 (24000/1001) кадра/сек
Цветовое пространство : YUV
Субдискретизация насыщенности : 4:2:0
Битовая глубина : 8 бит
Тип развёртки : Прогрессивная
Бит/(Пиксели*Кадры) : 0.192
Размер потока : 3,50 Гбайт (81%)
Заголовок : k.e.n & MegaPeer
Библиотека кодирования : x264 core 157 r2969 d4099dd
Настройки программы : cabac=1 / ref=9 / deblock=1:-3:-3 / analyse=0x3:0x133 / me=umh / subme=11 / psy=1 / psy_rd=1.05:0.10 / mixed_ref=1 / me_range=32 / chroma_me=1 / trellis=2 / 8x8dct=1 / cqm=0 / deadzone=21,11 / fast_pskip=0 / chroma_qp_offset=-3 / threads=12 / lookahead_threads=2 / sliced_threads=0 / nr=0 / decimate=0 / interlaced=0 / bluray_compat=0 / constrained_intra=0 / bframes=9 / b_pyramid=2 / b_adapt=2 / b_bias=0 / direct=3 / weightb=1 / open_gop=0 / weightp=2 / keyint=240 / keyint_min=23 / scenecut=40 / intra_refresh=0 / rc=2pass / mbtree=0 / bitrate=4077 / ratetol=1.0 / qcomp=0.60 / qpmin=0 / qpmax=69 / qpstep=4 / cplxblur=20.0 / qblur=0.5 / ip_ratio=1.30 / pb_ratio=1.20 / aq=3:0.70
Язык : English
Default : Да
Forced : Нет
Цветовой диапазон : Limited
Основные цвета : BT.709
Характеристики трансфера : BT.709
Коэффициенты матрицы : BT.709

Аудио #1
Идентификатор : 2
Формат : AC-3
Формат/Информация : Audio Coding 3
Расширение режима : CM (complete main)
Параметр Endianness формата : Big
Идентификатор кодека : A_AC3
Продолжительность : 2 ч. 5 м.
Вид битрейта : Постоянный
Битрейт : 384 Кбит/сек
Каналы : 6 каналов
Расположение каналов : Front: L C R, Side: L R, LFE
Частота : 48,0 КГц
Частота кадров : 31,250 кадров/сек (1536 spf)
Битовая глубина : 16 бит
Метод сжатия : С потерями
Размер потока : 346 Мбайт (8%)
Заголовок : Дублированный
Язык : Russian
Default : Да
Forced : Да

Аудио #2
Идентификатор : 3
Формат : AC-3
Формат/Информация : Audio Coding 3
Расширение режима : CM (complete main)
Параметр Endianness формата : Big
Идентификатор кодека : A_AC3
Продолжительность : 2 ч. 5 м.
Вид битрейта : Постоянный
Битрейт : 448 Кбит/сек
Каналы : 6 каналов
Расположение каналов : Front: L C R, Side: L R, LFE
Частота : 48,0 КГц
Частота кадров : 31,250 кадров/сек (1536 spf)
Битовая глубина : 16 бит
Метод сжатия : С потерями
Размер потока : 403 Мбайт (9%)
Заголовок : Оригинал
Язык : English
Default : Нет
Forced : Нет

Текст #1
Идентификатор : 4
Формат : UTF-8
Идентификатор кодека : S_TEXT/UTF8
Идентификатор кодека/Информация : UTF-8 Plain Text
Заголовок : Full
Язык : Russian
Default : Нет
Forced : Нет

Текст #2
Идентификатор : 5
Формат : UTF-8
Идентификатор кодека : S_TEXT/UTF8
Идентификатор кодека/Информация : UTF-8 Plain Text
Заголовок : SDH
Язык : English
Default : Нет
Forced : Нет

Меню
00:00:00.000 : en:Глава 01
00:09:33.907 : en:Глава 02
00:23:35.122 : en:Глава 03
00:36:28.728 : en:Глава 04
00:55:40.754 : en:Глава 05
01:17:07.790 : en:Глава 06
01:33:05.246 : en:Глава 07
01:46:45.399 : en:Глава 08
01:58:26.808 : en:Глава 09
 

Вложения

  • 11,8 KB Просмотры: 0
    Личеров 0
    Сидеров 0
    Файлов 1
    Объем 4,3 GB
Ваш e-mail не будет опубликован. Он потребуется для подтверждения Вашего поста.
Оформление текста Нажмите «Ввод», чтобы отправить ответ.