За последнюю неделю опубликовано 64 новых материалов.
Инструкция новичку Путеводитель по форуму Прокси для Telegram Показать подсказки , это бомба!

Скачать Век помрачения / L'Âge des ténèbres / The Age of Ignorance (2007) DVDRip | P, P2 бесплатно через торрент

  • Получай до 480 рублей за каждого приглашенного пользователя!
    представляем Вам очередное расширение партнерской программы, подробности описаны тут -> ссылка
  • 90% материалов доступно к скачиванию после простой регистрации!
    Если же ты хочешь скачивать материалы без требования оставлять отзывы то получи группу "Новичок", 10 способов повышения описаны тут -> ссылка
  • К сожалению количество битых ссылок растет и мы уже не можем их оперативно восстанавливать поэтому просим помощи у каждого нашего пользователя.
    С сегодняшнего дня, за каждую восстановленную ссылку мы заплатим Вам.
    Подробнее тут -> ссылка
  • Перенесем твои заслуги с другого ресурса!
    Мы понимаем как сложно прокачивать аккаунты на форумах, вроде раскачал аккаунт, а тут появляется ресурс в 100 раз круче но тоже с системой прокачки и снова качать аккаунт...
    Предлагаем вам перенести Ваши заслуги на другом подобном ресурсе к нам.
    Подробности описаны тут -> ссылка
  • Вы можете получать по 2.5% с каждой покупки и продажи на маркете! Подробности в теме Партнёрская программа
Если Вы не хотите скачивать, Вы всегда можетепосмотретьонлайн, просто нажмите кнопку ниже :

Открыть плеер

Torrent_Bot

Торрент-Бот
Бот форума
4 Окт 2016
125
45
20


Информация о фильме
Название: Век помрачения
Оригинальное название: L'Âge des ténèbres / The Age of Ignorance
Год выхода: 2007
Жанр: фэнтези, драма, мизантропическая комедия
Режиссер: Дени Аркан / Denys Arcand
В ролях: Марк Лябреш /Marc Labrèche/, Диана Крюгер /Diane Kruger/, Сильви Леонар /Sylvie Léonard/, Каролина Нерон /Caroline Néron/, Руфус Вейнрайт /Rufus Wainwright/, Эмма де Кон /Emma de Caunes/

О фильме:
В своих мечтах Жан-Марк — рыцарь в сверкающих доспехах, звезда сцены и экрана и преуспевающий писатель, к ногам и в постель которого падают женщины. На самом деле он — никто, чиновник, ничтожный муж, несостоятельный отец и тайный курильщик. Но Жан-Марк сопротивляется искушениям мира своих грез и намерен дать себе еще один шанс в реальном мире…
---------------------------------------
Мизантропическая комедия про то, как все плохо в Канаде в недалеком будущем. Новый фильм автора «Нашествия варваров» - что-то среднее между «Бразилией» Гиллиама и первыми 15 минутами «Красоты по-американски».
Жан-Марк Леблан (Лабреш) - средних лет квебекский госслужащий, похожий на лемура хмырь, которому хочется наступить на ногу, - терпит в жизни бесконечные маленькие унижения. На работе он без удовольствия выслушивает истории людей, которым еще хуже, чем ему, и которым он все равно не сможет помочь, а дома его не ждут жена-риелтор и пара безмозглых дочек. Леблан развлекает себя видениями, в которых гений чистой красоты (Крюгер) натирает ему спинку, или он получает Гонкуровскую премию, или трахает восторженную журналистку, или подвергает начальницу пыткам, или (почему-то) поет голосом Руфуса Уэйнрайта. В реальности самое интересное, что с ним случается, - его как-то раз одевают хоббитом.
Если бы аудитория Дени Аркана была пошире, канадские консульства определенно не были бы завалены прошениями о гражданстве: менее патриотичные фильмы выходят разве что у скандинавов. А движение за легализацию эвтаназии, наоборот, процветало бы и уже, скорее всего, сформировало свое правительство. Аркан наверняка ежедневно смотрит новости, чтобы не пропустить очередной гротескный теракт или обвал фондового рынка. Лучшее, что есть в «Веке», — второстепенные эпизоды из мидл-классовой жизни, увиденные немигающим взглядом мизантропа, вроде тетки в поезде, которая громко обсуждает по мобильному внутренние кровотечения. Худшее, пожалуй, все, что происходит с главным героем: повторяющийся прием с фантазиями, одолженный из каких-то позавчерашних комедий, довольно быстро утомляет (хотя идея позвать хорошую актрису Эмму де Кон на роль, которая исчерпывается фразой «Возьми меня пожестче», была остроумной); офисная сатира остается офисной сатирой, а буколический финал и вовсе отдает реланиумом. Реланиум здесь, впрочем, тоже выписан уверенным почерком доктора Кеворкяна.
(c) Станислав Зельвенский




Страна: Канада, Франция
Продолжительность: 01:39:29
Перевод: 1: Русский: Профессиональный двухголосый
2: Русский: Профессиональный (многоголосый, закадровый)
3: Французский: оригинал

Файл
Кодек: XviD
Качество: DVDRip

Видео: 720x304 (2.37:1), 25 fps, XviD MPEG-4 ~1861 kbps avg, 0.34 bit/pixel
Аудио: 48 kHz, AC3 Dolby Digital, 2/0 (L,R) ch, ~192 kbps Многоголосый закадровый
Аудио 2: 48 kHz, AC3 Dolby Digital, 3/2 (L,C,R,l,r) + LFE ch, ~448 kbps Двухголосый закадровый
Аудио 3: 48 kHz, AC3 Dolby Digital, 3/2 (L,C,R,l,r) + LFE ch, ~448 kbps
Формат субтитров: softsub (SRT)
MediaInfo
Общее
Полное имя : D:L'âge des ténèbres (Denys Arcand, 2007) DVDRip (2xRus, Fra).avi
Формат : AVI
Формат/Информация : Audio Video Interleave
Профиль формата : OpenDML
Размер файла : 2,05 Гбайт
Продолжительность : 1 ч. 39 м.
Общий поток : 2957 Кбит/сек
Программа кодирования : VirtualDubModRus 1.5.10.2 (build 2542/release)
Библиотека кодирования : VirtualDubMod build 2542/release

Видео
Идентификатор : 0
Формат : MPEG-4 Visual
Профиль формата : Advanced [email protected]
Параметр BVOP формата : 1
Параметр QPel формата : Нет
Параметр GMC формата : Без точки перехода
Параметр матрицы формата : Выборочная
Идентификатор кодека : XVID
Идентификатор кодека/Подсказка : XviD
Продолжительность : 1 ч. 39 м.
Битрейт : 1844 Кбит/сек
Ширина : 720 пикселей
Высота : 304 пикселя
Соотношение сторон : 2,35:1
Частота кадров : 25,000 кадров/сек
Цветовое пространство : YUV
Субдискретизация насыщенности : 4:2:0
Битовая глубина : 8 бит
Тип развёртки : Прогрессивная
Метод сжатия : С потерями
Бит/(Пиксели*Кадры) : 0.337
Размер потока : 1,28 Гбайт (62%)
Библиотека кодирования : XviD 1.2.1 (UTC 2008-12-04)

Аудио #1
Идентификатор : 1
Формат : AC-3
Формат/Информация : Audio Coding 3
Параметр Endianness формата : Big
Идентификатор кодека : 2000
Продолжительность : 1 ч. 39 м.
Вид битрейта : Постоянный
Битрейт : 192 Кбит/сек
Каналы : 2 канала
Расположение каналов : Front: L R
Частота : 48,0 КГц
Частота кадров : 31,250 кадров/сек (1536 SPF)
Битовая глубина : 16 бит
Метод сжатия : С потерями
Размер потока : 137 Мбайт (6%)
Выравнивание : Разделение по промежуткам
Продолжительность промежутка : 40 мс. (1,00 видеокадр)
Время предзагрузки промежутка : 500 мс.
ServiceKind/String : Complete Main

Аудио #2
Идентификатор : 2
Формат : AC-3
Формат/Информация : Audio Coding 3
Параметр Endianness формата : Big
Идентификатор кодека : 2000
Продолжительность : 1 ч. 39 м.
Вид битрейта : Постоянный
Битрейт : 448 Кбит/сек
Каналы : 6 каналов
Расположение каналов : Front: L C R, Side: L R, LFE
Частота : 48,0 КГц
Частота кадров : 31,250 кадров/сек (1536 SPF)
Битовая глубина : 16 бит
Метод сжатия : С потерями
Размер потока : 319 Мбайт (15%)
Выравнивание : Разделение по промежуткам
Продолжительность промежутка : 40 мс. (1,00 видеокадр)
Время предзагрузки промежутка : 500 мс.
ServiceKind/String : Complete Main

Аудио #3
Идентификатор : 3
Формат : AC-3
Формат/Информация : Audio Coding 3
Параметр Endianness формата : Big
Идентификатор кодека : 2000
Продолжительность : 1 ч. 39 м.
Вид битрейта : Постоянный
Битрейт : 448 Кбит/сек
Каналы : 6 каналов
Расположение каналов : Front: L C R, Side: L R, LFE
Частота : 48,0 КГц
Частота кадров : 31,250 кадров/сек (1536 SPF)
Битовая глубина : 16 бит
Метод сжатия : С потерями
Размер потока : 319 Мбайт (15%)
Выравнивание : Разделение по промежуткам
Продолжительность промежутка : 40 мс. (1,00 видеокадр)
Время предзагрузки промежутка : 500 мс.
ServiceKind/String : Complete Main

Скриншот c названием фильма

Скриншоты

Релиз от: &
 

Вложения

  • 11,5 KB Просмотры: 0
    Личеров 0
    Сидеров 0
    Файлов 3
    Объем 2,1 GB
Ваш e-mail не будет опубликован. Он потребуется для подтверждения Вашего поста.
Оформление текста Нажмите «Ввод», чтобы отправить ответ.