За последнюю неделю опубликовано 64 новых материалов.
Инструкция новичку Путеводитель по форуму Прокси для Telegram Показать подсказки , это бомба!

Скачать Зомби по имени Шон / Shaun of the Dead (2004) WEB-DL 1080p | P, A | Open Matte бесплатно через торрент

  • Получай до 480 рублей за каждого приглашенного пользователя!
    представляем Вам очередное расширение партнерской программы, подробности описаны тут -> ссылка
  • 90% материалов доступно к скачиванию после простой регистрации!
    Если же ты хочешь скачивать материалы без требования оставлять отзывы то получи группу "Новичок", 10 способов повышения описаны тут -> ссылка
  • К сожалению количество битых ссылок растет и мы уже не можем их оперативно восстанавливать поэтому просим помощи у каждого нашего пользователя.
    С сегодняшнего дня, за каждую восстановленную ссылку мы заплатим Вам.
    Подробнее тут -> ссылка
  • Перенесем твои заслуги с другого ресурса!
    Мы понимаем как сложно прокачивать аккаунты на форумах, вроде раскачал аккаунт, а тут появляется ресурс в 100 раз круче но тоже с системой прокачки и снова качать аккаунт...
    Предлагаем вам перенести Ваши заслуги на другом подобном ресурсе к нам.
    Подробности описаны тут -> ссылка
  • Вы можете получать по 2.5% с каждой покупки и продажи на маркете! Подробности в теме Партнёрская программа
Если Вы не хотите скачивать, Вы всегда можетепосмотретьонлайн, просто нажмите кнопку ниже :

Открыть плеер

Torrent_Bot

Торрент-Бот
Бот форума
4 Окт 2016
125
45
20



Информация о фильме
Название: Зомби по имени Шон
Оригинальное название: Shaun of the Dead
Год выхода: 2004
Жанр: ужасы, комедия
Режиссер: Эдгар Райт
В ролях: Саймон Пегг, Ник Фрост, Кейт Эшфилд, Люси Дэвис, Дилан Моран, Пенелопа Уилтон, Питер Серафинович, Билл Найи, Джессика Хайнс, Хортон Юпитер

О фильме:
В жизни Шона все идет наперекосяк: ему 29 лет, он работает обычным продавцом-консультантом в эдаком «Эльдорадо» британского типа, дома постоянные бытовые разборки с сожителями, еще и подруга дает полный отворот-поворот. В общем, не жизнь, а сплошная мука. А тут еще, как назло, начинается какая-то странная эпидемия — ожившие и очень голодные трупы начинают бродить по туманному Альбиону в поисках свежей человечинки, по ходу дела заражая все больше и больше невинных граждан, превращая оных в таких же зомби. Вот тут-то и приходит конец терпению нашего героя! Вместе со своим закадычным другом Эдом, вооружившись дубинами и лопатами, верные друзья выходят на тропу войны, дабы посносить бошки надоедливым зомбякам, спасти своих близких и выжить самим.



Страна: Франция, Великобритания
Студия: Big Talk Productions, Studio Canal, Universal Pictures, Working Title Films
Продолжительность: 01:39:32
Перевод: Профессиональный (многоголосый, закадровый) + Авторский (одноголосый, закадровый)

Файл
Качество: WEB-DL 1080p | Open Matte
Формат: Matroska
Видео: MPEG-4 AVC / 12800 kbps / 1080p / 23.976 fps / 16:9 / High Profile 4.1
Аудио#1: Russian: 48 kHz, DTS, 3/2 (L,C,R,l,r) + LFE ch, ~1509 |MVO, Tycoon Uncensored|
Аудио#2: Russian: 48 kHz, АС3, 3/2 (L,C,R,l,r) + LFE ch, ~448 |MVO, R5|
Аудио#3: Russian: 48 kHz, DTS, 3/2 (L,C,R,l,r) + LFE ch, ~1509 |AVO, C. Визгунов|
Аудио#4: Russian: 48 kHz, DTS, 3/2 (L,C,R,l,r) + LFE ch, ~1509 |AVO, В. Королёв|
Аудио#5: Ukrainian: 48 kHz, АС3, 3/2 (L,C,R,l,r) + LFE ch, ~384 |MVO, 2+2|
Аудио#6: English: 48 kHz, DTS, 3/2 (L,C,R,l,r) + LFE ch, ~1509 kbps avg
Субтитры: Русские, английские

***В переводеTycoon-Studio и субтитрахприсутствует ненормативная лексика!

Релиз от: by maksnew



Примечания и сравнения:
ЦитатаКто-то писал:
Исходник видео WEB-DL Amazon STARZ (периодически появляется логотип)
Open Matte версия фильма, имеет большее наполнение кадра, по сравнению с блюрэй.
Дорожки № 3-4 собраны с чистых голосов.

Blu Ray vs WEB DL Amazon
M/I
General
Format : Matroska
Format version : Version 4
File size : 13.7 GiB
Duration : 1 h 39 min
Overall bit rate : 19.7 Mb/s
Encoded date : UTC 2019-04-30 08:28:07
Writing application : mkvmerge v33.1.0 ('Primrose') 64-bit
Writing library : libebml v1.3.7 + libmatroska v1.5.0

Video
ID : 1
Format : AVC
Format/Info : Advanced Video Codec
Format profile : [email protected]
Format settings : CABAC / 4 Ref Frames
Format settings, CABAC : Yes
Format settings, Reference : 4 frames
Codec ID : V_MPEG4/ISO/AVC
Duration : 1 h 39 min
Bit rate : 12.8 Mb/s
Width : 1 920 pixels
Height : 1 080 pixels
Display aspect ratio : 16:9
Frame rate mode : Constant
Frame rate : 23.976 (24000/1001) FPS
Color space : YUV
Chroma subsampling : 4:2:0
Bit depth : 8 bits
Scan type : Progressive
Bits/(Pixel*Frame) : 0.258
Stream size : 8.91 GiB (65%)
Default : Yes
Forced : No
Color range : Limited
Color primaries : BT.709
Transfer characteristics : BT.709
Matrix coefficients : BT.709

Audio #1
ID : 2
Format : DTS
Format/Info : Digital Theater Systems
Codec ID : A_DTS
Duration : 1 h 39 min
Bit rate mode : Constant
Bit rate : 1 510 kb/s
Channel(s) : 6 channels
Channel layout : C L R Ls Rs LFE
Sampling rate : 48.0 kHz
Frame rate : 93.750 FPS (512 SPF)
Bit depth : 24 bits
Compression mode : Lossy
Stream size : 1.05 GiB (8%)
Title : Tycoon
Language : Russian
Default : Yes
Forced : No

Audio #2
ID : 3
Format : AC-3
Format/Info : Audio Coding 3
Commercial name : Dolby Digital
Codec ID : A_AC3
Duration : 1 h 39 min
Bit rate mode : Constant
Bit rate : 448 kb/s
Channel(s) : 6 channels
Channel layout : L R C LFE Ls Rs
Sampling rate : 48.0 kHz
Frame rate : 31.250 FPS (1536 SPF)
Bit depth : 16 bits
Compression mode : Lossy
Stream size : 319 MiB (2%)
Title : R5
Language : Russian
Service kind : Complete Main
Default : No
Forced : No

Audio #3
ID : 4
Format : DTS
Format/Info : Digital Theater Systems
Codec ID : A_DTS
Duration : 1 h 39 min
Bit rate mode : Constant
Bit rate : 1 510 kb/s
Channel(s) : 6 channels
Channel layout : C L R Ls Rs LFE
Sampling rate : 48.0 kHz
Frame rate : 93.750 FPS (512 SPF)
Bit depth : 24 bits
Compression mode : Lossy
Stream size : 1.05 GiB (8%)
Title : С. Визгунов
Language : Russian
Default : No
Forced : No

Audio #4
ID : 5
Format : DTS
Format/Info : Digital Theater Systems
Codec ID : A_DTS
Duration : 1 h 39 min
Bit rate mode : Constant
Bit rate : 1 510 kb/s
Channel(s) : 6 channels
Channel layout : C L R Ls Rs LFE
Sampling rate : 48.0 kHz
Frame rate : 93.750 FPS (512 SPF)
Bit depth : 24 bits
Compression mode : Lossy
Stream size : 1.05 GiB (8%)
Title : В. Королёв
Language : Russian
Default : No
Forced : No

Audio #5
ID : 6
Format : AC-3
Format/Info : Audio Coding 3
Commercial name : Dolby Digital
Codec ID : A_AC3
Duration : 1 h 39 min
Bit rate mode : Constant
Bit rate : 384 kb/s
Channel(s) : 6 channels
Channel layout : L R C LFE Ls Rs
Sampling rate : 48.0 kHz
Frame rate : 31.250 FPS (1536 SPF)
Bit depth : 16 bits
Compression mode : Lossy
Stream size : 274 MiB (2%)
Language : Ukrainian
Service kind : Complete Main
Default : No
Forced : No

Audio #6
ID : 7
Format : DTS
Format/Info : Digital Theater Systems
Codec ID : A_DTS
Duration : 1 h 39 min
Bit rate mode : Constant
Bit rate : 1 510 kb/s
Channel(s) : 6 channels
Channel layout : C L R Ls Rs LFE
Sampling rate : 48.0 kHz
Frame rate : 93.750 FPS (512 SPF)
Bit depth : 24 bits
Compression mode : Lossy
Stream size : 1.05 GiB (8%)
Language : English
Default : No
Forced : No

Text #1
ID : 8
Format : UTF-8
Codec ID : S_TEXT/UTF8
Codec ID/Info : UTF-8 Plain Text
Duration : 1 h 38 min
Bit rate : 112 b/s
Count of elements : 1265
Stream size : 80.6 KiB (0%)
Language : Russian
Default : No
Forced : No

Text #2
ID : 9
Format : UTF-8
Codec ID : S_TEXT/UTF8
Codec ID/Info : UTF-8 Plain Text
Duration : 1 h 33 min
Bit rate : 113 b/s
Count of elements : 1239
Stream size : 77.3 KiB (0%)
Language : Russian
Default : No
Forced : No

Text #3
ID : 10
Format : UTF-8
Codec ID : S_TEXT/UTF8
Codec ID/Info : UTF-8 Plain Text
Duration : 1 h 33 min
Bit rate : 114 b/s
Count of elements : 1237
Stream size : 77.9 KiB (0%)
Language : Russian
Default : No
Forced : No

Text #4
ID : 11
Format : UTF-8
Codec ID : S_TEXT/UTF8
Codec ID/Info : UTF-8 Plain Text
Duration : 1 h 33 min
Bit rate : 98 b/s
Count of elements : 1223
Stream size : 67.0 KiB (0%)
Language : Russian
Default : No
Forced : No

Text #5
ID : 12
Format : UTF-8
Codec ID : S_TEXT/UTF8
Codec ID/Info : UTF-8 Plain Text
Duration : 1 h 33 min
Bit rate : 103 b/s
Count of elements : 1216
Stream size : 70.3 KiB (0%)
Language : Russian
Default : No
Forced : No

Text #6
ID : 13
Format : UTF-8
Codec ID : S_TEXT/UTF8
Codec ID/Info : UTF-8 Plain Text
Duration : 54 s 900 ms
Bit rate : 168 b/s
Count of elements : 16
Stream size : 1.13 KiB (0%)
Language : English
Default : No
Forced : No

Text #7
ID : 14
Format : UTF-8
Codec ID : S_TEXT/UTF8
Codec ID/Info : UTF-8 Plain Text
Duration : 1 h 38 min
Bit rate : 81 b/s
Count of elements : 1652
Stream size : 58.4 KiB (0%)
Title : English [SDH] Amazon
Language : English
Default : No
Forced : No
Скриншоты

 

Вложения

  • 69,4 KB Просмотры: 0
    Личеров 0
    Сидеров 0
    Файлов 1
    Объем 13,7 GB
Ваш e-mail не будет опубликован. Он потребуется для подтверждения Вашего поста.
Оформление текста Нажмите «Ввод», чтобы отправить ответ.