За сегодня опубликовано 0 новых материалов.
Инструкция новичку Путеводитель по форуму Прокси для Telegram Показать подсказки , это бомба!

Скачать Третий акт / The Magic of Belle Isle (2012) BDRip 1080p от FREEISLAND | L2 бесплатно через торрент

  • Получай до 480 рублей за каждого приглашенного пользователя!
    представляем Вам очередное расширение партнерской программы, подробности описаны тут -> ссылка
  • 90% материалов доступно к скачиванию после простой регистрации!
    Если же ты хочешь скачивать материалы без требования оставлять отзывы то получи группу "Новичок", 10 способов повышения описаны тут -> ссылка
  • К сожалению количество битых ссылок растет и мы уже не можем их оперативно восстанавливать поэтому просим помощи у каждого нашего пользователя.
    С сегодняшнего дня, за каждую восстановленную ссылку мы заплатим Вам.
    Подробнее тут -> ссылка
  • Перенесем твои заслуги с другого ресурса!
    Мы понимаем как сложно прокачивать аккаунты на форумах, вроде раскачал аккаунт, а тут появляется ресурс в 100 раз круче но тоже с системой прокачки и снова качать аккаунт...
    Предлагаем вам перенести Ваши заслуги на другом подобном ресурсе к нам.
    Подробности описаны тут -> ссылка
  • Вы можете получать по 2.5% с каждой покупки и продажи на маркете! Подробности в теме Партнёрская программа
Если Вы не хотите скачивать, Вы всегда можете посмотреть онлайн, просто нажмите кнопку ниже :

Открыть плеер

Torrent_Bot

Торрент-Бот
Бот форума
4 Окт 2016
125
43
20

Третий акт
The Magic of Belle Isle
«A Re-Coming of Age Story»

Год выпуска: 2012
Страна: США
Слоган: «A Re-Coming of Age Story»
Жанр: драма, комедия
Продолжительность: 01:49:18
Перевод: Любительский (двухголосый) студия "Райдо", перевод Janetta

Режиссер: Роб Райнер / Rob Reiner



В ролях: Морган Фриман(Monte Wildhorn), Кенан Томпсон(Henry), Вирджиния Мэдсен(Charlotte O'Neil), Эмма Фурманн(Finnegan O'Neil), Мадлен Кэрролл(Willow O'Neil), Николетт Пьерини(Flora O'Neil), С.Дж. Уилсон(Fire Captain), Эш Кристиан(Carl Loop), Дебарго Саньял(Mahmoud), Фред Уиллард(Al Kaiser), Джессика Хехт(Karen Loop), Кристофер МакКанн(Bookstore Owner)

Описание: Знаменитый писатель возвращается в маленький город, в котором стал известным. Здесь он пытается раскрыть талант у одной маленькой девочки, которая еще не научилась отпускать свое воображение на волю.




MPAA: PG - Рекомендуется присутствие родителей



Качество: BDRip 1080p
Контейнер: MKV
Видео: AVC, 1920x1040 (16:9), 9580 kbps, 23,976 fps, 0,200 bpp
Аудио №1: русский /; AC3 /; 5.1 /; 48 kHz /; 384 kbps /; 16 bit; |студия "Райдо"|
Аудио №2: английский /; AC3 /; 5.1 /; 48 kHz /; 448 kbps /; 16 bit
Субтитры №1: русские
Субтитры №2: английские
Навигация по главам: есть

Media Info
General
Unique ID : 182685429619952198808552924135706827597 (0x896FEF16174915E9AC2FF747DBEB9B4D)
Complete name : E:The Magic of Belle Isle (2012)BDRip-F.HD.mkv
Format : Matroska
Format version : Version 2
File size : 7.95 GiB
Duration : 1h 49mn
Overall bit rate : 10.4 Mbps
Encoded date : UTC 2012-10-26 04:26:16
Writing application : mkvmerge v5.8.0 ('No Sleep / Pillow') built on Sep 2 2012 15:37:04
Writing library : libebml v1.2.3 + libmatroska v1.3.0

Video
ID : 1
Format : AVC
Format/Info : Advanced Video Codec
Format profile : [email protected]
Format settings, CABAC : Yes
Format settings, ReFrames : 4 frames
Codec ID : V_MPEG4/ISO/AVC
Duration : 1h 49mn
Bit rate : 9 580 Kbps
Width : 1 920 pixels
Height : 1 040 pixels
Display aspect ratio : 16:9
Frame rate : 23.976 fps
Color space : YUV
Chroma subsampling : 4:2:0
Bit depth : 8 bits
Scan type : Progressive
Bits/(Pixel*Frame) : 0.200
Stream size : 7.16 GiB (90%)
Writing library : x264 core 128 r2216 198a7ea
Encoding settings : cabac=1 / ref=4 / deblock=1:-3:-3 / analyse=0x3:0x113 / me=umh / subme=10 / psy=1 / psy_rd=1.00:0.10 / mixed_ref=1 / me_range=32 / chroma_me=1 / trellis=2 / 8x8dct=1 / cqm=0 / deadzone=21,11 / fast_pskip=0 / chroma_qp_offset=1 / threads=6 / lookahead_threads=1 / sliced_threads=0 / nr=0 / decimate=1 / interlaced=0 / bluray_compat=0 / constrained_intra=0 / bframes=8 / b_pyramid=2 / b_adapt=2 / b_bias=0 / direct=3 / weightb=1 / open_gop=0 / weightp=2 / keyint=240 / keyint_min=23 / scenecut=40 / intra_refresh=0 / rc=2pass / mbtree=0 / bitrate=9580 / ratetol=1.0 / qcomp=0.70 / qpmin=0 / qpmax=63 / qpstep=4 / cplxblur=20.0 / qblur=0.5 / ip_ratio=1.25 / pb_ratio=1.25 / aq=2:0.90
Language : English
Default : Yes
Forced : No
Color primaries : BT.709-5, BT.1361, IEC 61966-2-4, SMPTE RP177
Transfer characteristics : BT.709-5, BT.1361
Matrix coefficients : BT.709-5, BT.1361, IEC 61966-2-4 709, SMPTE RP177

Audio #1
ID : 2
Format : AC-3
Format/Info : Audio Coding 3
Mode extension : CM (complete main)
Codec ID : A_AC3
Duration : 1h 49mn
Bit rate mode : Constant
Bit rate : 384 Kbps
Channel(s) : 6 channels
Channel positions : Front: L C R, Side: L R, LFE
Sampling rate : 48.0 KHz
Bit depth : 16 bits
Compression mode : Lossy
Stream size : 300 MiB (4%)
Title : студия "Райдо"
Language : Russian
Default : Yes
Forced : No

Audio #2
ID : 3
Format : AC-3
Format/Info : Audio Coding 3
Mode extension : CM (complete main)
Codec ID : A_AC3
Duration : 1h 49mn
Bit rate mode : Constant
Bit rate : 448 Kbps
Channel(s) : 6 channels
Channel positions : Front: L C R, Side: L R, LFE
Sampling rate : 48.0 KHz
Bit depth : 16 bits
Compression mode : Lossy
Stream size : 350 MiB (4%)
Language : English
Default : No
Forced : No

Text #1
ID : 4
Format : UTF-8
Codec ID : S_TEXT/UTF8
Codec ID/Info : UTF-8 Plain Text
Language : Russian
Default : No
Forced : No

Text #2
ID : 5
Format : UTF-8
Codec ID : S_TEXT/UTF8
Codec ID/Info : UTF-8 Plain Text
Language : English
Default : No
Forced : No

Menu
00:00:00.000 : en:Chapter 01
00:12:17.737 : en:Chapter 02
00:20:21.762 : en:Chapter 03
00:29:19.424 : en:Chapter 04
00:40:48.320 : en:Chapter 05
00:53:00.844 : en:Chapter 06
01:02:15.273 : en:Chapter 07
01:13:15.432 : en:Chapter 08
01:20:50.095 : en:Chapter 09
01:30:06.109 : en:Chapter 10
01:34:18.694 : en:Chapter 11
01:45:16.351 : en:Chapter 12
01:49:18.301 : en:Chapter 13
Знаете ли Вы, что...
Произведение, которое играет Шарлотта во время посещения их дома Монте Уайлдхорном и которое слышат в доме Уайдхорна он сам и его два гостя, - вторая часть сонаты N 8 «Патетической» Людвига ван Бетховена.
Скриншоты


Релиз от:
 

Вложения

  • 40,9 KB Просмотры: 0
    Личеров 0
    Сидеров 0
    Файлов 1
    Объем 8 GB
Ваш e-mail не будет опубликован. Он потребуется для подтверждения Вашего поста.
Оформление текста Нажмите «Ввод», чтобы отправить ответ.