За сегодня опубликовано 0 новых материалов.
Инструкция новичку Путеводитель по форуму Прокси для Telegram Показать подсказки , это бомба!

Скачать Рожденный в восточном Лос-Анджелесе / Born in East L.A. (1987) HDRip-AVC | A бесплатно через торрент

  • Получай до 480 рублей за каждого приглашенного пользователя!
    представляем Вам очередное расширение партнерской программы, подробности описаны тут -> ссылка
  • 90% материалов доступно к скачиванию после простой регистрации!
    Если же ты хочешь скачивать материалы без требования оставлять отзывы то получи группу "Новичок", 10 способов повышения описаны тут -> ссылка
  • К сожалению количество битых ссылок растет и мы уже не можем их оперативно восстанавливать поэтому просим помощи у каждого нашего пользователя.
    С сегодняшнего дня, за каждую восстановленную ссылку мы заплатим Вам.
    Подробнее тут -> ссылка
  • Перенесем твои заслуги с другого ресурса!
    Мы понимаем как сложно прокачивать аккаунты на форумах, вроде раскачал аккаунт, а тут появляется ресурс в 100 раз круче но тоже с системой прокачки и снова качать аккаунт...
    Предлагаем вам перенести Ваши заслуги на другом подобном ресурсе к нам.
    Подробности описаны тут -> ссылка
  • Вы можете получать по 2.5% с каждой покупки и продажи на маркете! Подробности в теме Партнёрская программа
Если Вы не хотите скачивать, Вы всегда можете посмотреть онлайн, просто нажмите кнопку ниже :

Открыть плеер

Torrent_Bot

Торрент-Бот
Бот форума
4 Окт 2016
125
43
20



Информация о фильме
Название: Рожденный в восточном Лос-Анджелесе
Оригинальное название: Born in East L.A.
Год выхода: 1987
Жанр: комедия
Режиссер: Чич Марин
В ролях: Чич Марин, Пол Родригез, Дэниэл Стерн, Камала Лопес-Даусон, Ян-Майкл Винсент, Люпе Онтиверос, Частити Айала, Дэвид Перез, Нейт Хантер, Ларри Блэкмон, Тито Ларрива, Джеффри Ривас, Эдди Барт, Тони Плана, Элой Касадос, Ноубл Уиллингэм, Джейсон Скотт Ли

О фильме:
Американский испанец в третьем поколении арестован без всяких документов во время налета иммиграционной службы и депортирован в Мексику. Документов нет, испанского он не знает, и обратно в родные Штаты его не пускают…



Страна: США
Студия: Clear Type
Продолжительность: 01:24:22
Перевод: Авторский (одноголосый) В.Горчаков

Файл
Кодек: x.264
Качество: HDRip-AVC | исх. BDRip 1080р
Видео: h264 / 2390 kbps / 1024x552 / 23,976 fps
Звук: 48 kHz / 2 ch / 192 kbps
Субтитры: Нет

Релиз от: Alukard14

log
x264 [info]: frame I:1143 Avg QP:17.88 size: 59489
x264 [info]: frame P:13862 Avg QP:20.42 size: 25729
x264 [info]: frame B:106354 Avg QP:22.20 size: 10187
x264 [info]: consecutive B-frames: 2.3% 0.2% 0.2% 0.3% 0.5% 0.4% 0.5% 0.8% 1.6% 93.2%
x264 [info]: mb I I16..4: 2.7% 87.9% 9.4%
x264 [info]: mb P I16..4: 0.4% 13.5% 1.3% P16..4: 32.8% 37.2% 11.9% 0.0% 0.0% skip: 2.8%
x264 [info]: mb B I16..4: 0.1% 1.6% 0.2% B16..8: 36.6% 24.5% 4.0% direct: 6.5% skip:26.6% L0:46.9% L1:43.2% BI:10.0%
x264 [info]: 8x8 transform intra:87.6% inter:67.4%
x264 [info]: direct mvs spatial:99.6% temporal:0.4%
x264 [info]: coded y,uvDC,uvAC intra: 91.0% 82.8% 47.6% inter: 32.0% 22.5% 3.1%
x264 [info]: i16 v,h,dc,p: 34% 17% 4% 45%
x264 [info]: i8 v,h,dc,ddl,ddr,vr,hd,vl,hu: 12% 6% 4% 10% 14% 15% 13% 13% 13%
x264 [info]: i4 v,h,dc,ddl,ddr,vr,hd,vl,hu: 15% 7% 5% 8% 14% 16% 13% 11% 11%
x264 [info]: i8c dc,h,v,p: 35% 23% 21% 21%
x264 [info]: Weighted P-Frames: Y:6.1% UV:1.8%
x264 [info]: ref P L0: 39.3% 10.5% 20.0% 7.3% 6.6% 4.2% 4.1% 2.0% 2.2% 1.6% 1.8% 0.3% 0.0%
x264 [info]: ref B L0: 68.9% 13.1% 6.7% 3.5% 2.4% 2.0% 1.6% 1.0% 0.5% 0.2%
x264 [info]: ref B L1: 91.2% 8.8%
x264 [info]: kb/s:2383.50
MediaInfo
Общее
Уникальный идентификатор : 206091810151449374157770671336580388346 (0x9B0BD6BEA2A62E3A8D651810F68715FA)
Полное имя : E:TestBorn.in.East.L.A.1987.HDRip-AVC.by.Alukard14.mkv
Формат : Matroska
Версия формата : Version 2
Размер файла : 1,52 Гбайт
Продолжительность : 1 ч. 24 м.
Общий поток : 2577 Кбит/сек
Дата кодирования : UTC 2019-05-02 13:05:47
Программа кодирования : mkvmerge v6.9.1 ('Blue Panther') 32bit built on Apr 18 2014 18:15:44
Библиотека кодирования : libebml v1.3.0 + libmatroska v1.4.1

Видео
Идентификатор : 1
Формат : AVC
Формат/Информация : Advanced Video Codec
Профиль формата : [email protected]
Настройки формата : CABAC / 11 Ref Frames
Параметр CABAC формата : Да
Параметр RefFrames формата : 11 кадров
Идентификатор кодека : V_MPEG4/ISO/AVC
Продолжительность : 1 ч. 24 м.
Битрейт : 2390 Кбит/сек
Ширина : 1024 пикселя
Высота : 552 пикселя
Соотношение сторон : 1,85:1
Режим частоты кадров : Постоянный
Частота кадров : 23,976 кадра/сек
Цветовое пространство : YUV
Субдискретизация насыщенности : 4:2:0
Битовая глубина : 8 бит
Тип развёртки : Прогрессивная
Бит/(Пиксели*Кадры) : 0.176
Размер потока : 1,38 Гбайт (91%)
Библиотека кодирования : x264 core 148 r2638 7599210
Настройки программы : cabac=1 / ref=11 / deblock=1:-3:-3 / analyse=0x3:0x113 / me=umh / subme=11 / psy=1 / psy_rd=1.00:0.00 / mixed_ref=1 / me_range=48 / chroma_me=1 / trellis=2 / 8x8dct=1 / cqm=0 / deadzone=21,11 / fast_pskip=0 / chroma_qp_offset=-2 / threads=9 / lookahead_threads=1 / sliced_threads=0 / nr=0 / decimate=0 / interlaced=0 / bluray_compat=0 / constrained_intra=0 / bframes=9 / b_pyramid=2 / b_adapt=0 / b_bias=0 / direct=3 / weightb=1 / open_gop=0 / weightp=2 / keyint=240 / keyint_min=24 / scenecut=40 / intra_refresh=0 / rc_lookahead=40 / rc=2pass / mbtree=0 / bitrate=2390 / ratetol=1.0 / qcomp=0.60 / qpmin=0 / qpmax=69 / qpstep=2 / cplxblur=20.0 / qblur=0.5 / vbv_maxrate=14000 / vbv_bufsize=14000 / nal_hrd=none / filler=0 / ip_ratio=1.40 / pb_ratio=1.30 / aq=1:1.00
Default : Да
Forced : Нет

Аудио
Идентификатор : 2
Формат : AC-3
Формат/Информация : Audio Coding 3
Идентификатор кодека : A_AC3
Продолжительность : 1 ч. 24 м.
Вид битрейта : Постоянный
Битрейт : 192 Кбит/сек
Каналы : 2 канала
Расположение каналов : Front: L R
Частота : 48,0 КГц
Частота кадров : 31,250 кадров/сек (1536 SPF)
Битовая глубина : 16 бит
Метод сжатия : С потерями
Размер потока : 116 Мбайт (7%)
Default : Да
Forced : Нет
Скриншоты
 

Вложения

  • 16,2 KB Просмотры: 0
    Личеров 0
    Сидеров 0
    Файлов 1
    Объем 1,5 GB
Ваш e-mail не будет опубликован. Он потребуется для подтверждения Вашего поста.
Оформление текста Нажмите «Ввод», чтобы отправить ответ.