За последнюю неделю опубликовано 167 новых материалов.
Инструкция новичку Путеводитель по форуму Прокси для Telegram Показать подсказки , это бомба!

Ваша ненависть / The Hate U Give (2018) BDRip-AVC от OlLanDGroup | iTunes

  • Поучаствуй (в качестве покупателя) в любых пяти совместных покупках (кроме завершённых и "Моментальных") и получи группу "Новичок" навсегда -> ссылка на раздел
  • Получай до 480 рублей за каждого приглашенного пользователя!
    представляем Вам очередное расширение партнерской программы, подробности описаны тут -> ссылка
  • 90% материалов доступно к скачиванию после простой регистрации!
    Если же ты хочешь скачивать материалы без требования оставлять отзывы то получи группу "Новичок", 10 способов повышения описаны тут -> ссылка
  • К сожалению количество битых ссылок растет и мы уже не можем их оперативно восстанавливать поэтому просим помощи у каждого нашего пользователя.
    С сегодняшнего дня, за каждую восстановленную ссылку мы заплатим Вам.
    Подробнее тут -> ссылка
  • Перенесем твои заслуги с другого ресурса!
    Мы понимаем как сложно прокачивать аккаунты на форумах, вроде раскачал аккаунт, а тут появляется ресурс в 100 раз круче но тоже с системой прокачки и снова качать аккаунт...
    Предлагаем вам перенести Ваши заслуги на другом подобном ресурсе к нам.
    Подробности описаны тут -> ссылка
  • Вы можете получать по 2.5% с каждой покупки и продажи на маркете! Подробности в теме Партнёрская программа
Если Вы не хотите скачивать, Вы всегда можетепосмотретьонлайн, просто нажмите кнопку ниже :

Открыть плеер

Torrent_Bot

Торрент-Бот
Бот форума
4 Окт 2016
125
59
20


Ваша ненависть / The Hate U Give
«Two worlds, one voice, no going back»



Год выпуска: 2018
Страна: США
Производство: Fox 2000 Pictures, State Street Pictures, Temple Hill Entertainment
Жанр: Драма, криминал


Режиссёр: Джордж Тиллман мл.
В ролях: Амандла Стенберг, Реджина Холл, Расселл Хорнсби, Энтони Маки, Исса Рэй, Коммон, Элджи Смит, Сабрина Карпентер, Кей Джей Апа, Доминик Фишбэк


Перевод: Профессиональный (многоголосый, закадровый) | [iTunes]
Субтитры: Русские (форс.)
Реклама: Отсутствует

Описание: Девушка-подросток из чёрного гетто Старр мечется между двумя мирами - своим домом в неспокойном бедном районе и благополучной школой, где она учится вместе с белыми детьми. Положение Старр осложняется, когда она становится единственной свидетельницей того, как полицейский выстрелил в её безоружного друга, подозреваемого в наркоторговле.




Качество: BDRip-AVC | BDRemux | The.Hate.U.Give.2018.REMUX
Продолжительность: 02:13:05

Формат: MKV
Видео кодек: MPEG-4 AVC
Аудио кодек: AC3
Видео: 1024x426 (2.40:1), 23,976 fps, x264 ~1 779 Кбит/сек, 0.170 bit/pixel
Аудио #1: 48 kHz, AC3 Dolby Digital, 3/2 (L,C,R,l,r) + LFE ch, ~384.00 kbps avg | RUS (iTunes)


Дата премьеры (мир): 7 сентября 2018
Дата премьеры (РФ):
Цифровой релиз: 12 апреля 2019, «Двадцатый Век Фокс СНГ»


Релиз от:

MediaInfo
Общее
Уникальный идентификатор : 36052789506448548810652708857944178363 (0x1B1F83C2A71D7A9986172ABB446B7EBB)
Полное имя : F:OlLanDGroupThe.Hate.U.Give.2018.BDRip(AVC).OlLanDGroup.mkv
Формат : Matroska
Версия формата : Version 4 / Version 2
Размер файла : 2,01 Гбайт
Продолжительность : 2 ч. 13 м.
Общий поток : 2160 Кбит/сек
Название фильма : The.Hate.U.Give.2018 #TorpedoUK#
Дата кодирования : UTC 2019-04-13 12:52:41
Программа кодирования : mkvmerge v29.0.0 ('Like It Or Not') 64-bit
Библиотека кодирования : libebml v1.3.6 + libmatroska v1.4.9

Видео
Идентификатор : 1
Формат : AVC
Формат/Информация : Advanced Video Codec
Профиль формата : [email protected]
Параметр CABAC формата : Да
Параметр ReFrames формата : 10 кадров
Идентификатор кодека : V_MPEG4/ISO/AVC
Продолжительность : 2 ч. 13 м.
Битрейт : 1779 Кбит/сек
Ширина : 1024 пикселя
Высота : 426 пикселей
Соотношение сторон : 2,40:1
Режим частоты кадров : Постоянный
Частота кадров : 23,976 (24000/1001) кадра/сек
Цветовое пространство : YUV
Субдискретизация насыщенности : 4:2:0
Битовая глубина : 8 бит
Тип развёртки : Прогрессивная
Бит/(Пиксели*Кадры) : 0.170
Размер потока : 1,65 Гбайт (82%)
Библиотека кодирования : x264 core 146 r2538 121396c
Настройки программы : cabac=1 / ref=10 / deblock=1:-3:-3 / analyse=0x3:0x113 / me=umh / subme=11 / psy=1 / psy_rd=1.00:0.03 / mixed_ref=1 / me_range=48 / chroma_me=1 / trellis=2 / 8x8dct=1 / cqm=0 / deadzone=21,11 / fast_pskip=1 / chroma_qp_offset=-3 / threads=6 / lookahead_threads=1 / sliced_threads=0 / nr=0 / decimate=1 / interlaced=0 / bluray_compat=0 / constrained_intra=0 / bframes=11 / b_pyramid=2 / b_adapt=2 / b_bias=0 / direct=3 / weightb=1 / open_gop=0 / weightp=2 / keyint=240 / keyint_min=23 / scenecut=40 / intra_refresh=0 / rc_lookahead=40 / rc=2pass / mbtree=0 / bitrate=1779 / ratetol=1.0 / qcomp=0.60 / qpmin=0 / qpmax=69 / qpstep=4 / cplxblur=20.0 / qblur=0.5 / vbv_maxrate=50000 / vbv_bufsize=62500 / nal_hrd=none / filler=0 / ip_ratio=1.40 / pb_ratio=1.30 / aq=1:1.00
Язык : English
Default : Да
Forced : Нет

Аудио
Идентификатор : 2
Формат : AC-3
Формат/Информация : Audio Coding 3
Расширение режима : CM (complete main)
Параметр Endianness формата : Big
Идентификатор кодека : A_AC3
Продолжительность : 2 ч. 13 м.
Вид битрейта : Постоянный
Битрейт : 384 Кбит/сек
Каналы : 6 каналов
Расположение каналов : Front: L C R, Side: L R, LFE
Частота : 48,0 КГц
Частота кадров : 31,250 кадров/сек (1536 spf)
Битовая глубина : 16 бит
Метод сжатия : С потерями
Размер потока : 366 Мбайт (18%)
Заголовок : MVO [iTunes]
Язык : Russian
Default : Да
Forced : Нет

Текст
Идентификатор : 3
Формат : UTF-8
Идентификатор кодека : S_TEXT/UTF8
Идентификатор кодека/Информация : UTF-8 Plain Text
Продолжительность : 2 ч. 9 м.
Битрейт : 0 бит/сек
Count of elements : 16
Размер потока : 624 байт (0%)
Заголовок : Forced
Язык : Russian
Default : Да
Forced : Нет

Меню
00:00:00.000 : en:00:00:00.000
00:03:55.777 : en:00:03:55.777
00:08:18.081 : en:00:08:18.081
00:13:14.252 : en:00:13:14.252
00:19:32.129 : en:00:19:32.129
00:24:48.320 : en:00:24:48.320
00:29:34.314 : en:00:29:34.314
00:34:54.217 : en:00:34:54.217
00:40:09.532 : en:00:40:09.532
00:45:05.411 : en:00:45:05.411
00:50:09.215 : en:00:50:09.215
00:58:27.587 : en:00:58:27.587
01:03:58.376 : en:01:03:58.376
01:10:00.988 : en:01:10:00.988
01:14:51.278 : en:01:14:51.278
01:19:50.786 : en:01:19:50.786
01:27:09.599 : en:01:27:09.599
01:32:11.693 : en:01:32:11.693
01:37:36.225 : en:01:37:36.225
01:43:59.066 : en:01:43:59.066
01:49:39.156 : en:01:49:39.156
01:56:20.432 : en:01:56:20.432
01:58:00.156 : en:01:58:00.156
02:03:50.965 : en:02:03:50.965
Скриншоты


 

Вложения

  • 10,9 KB Просмотры: 1
    Личеров 0
    Сидеров 0
    Файлов 1
    Объем 2 GB
Ваш e-mail не будет опубликован. Он потребуется для подтверждения Вашего поста.
Оформление текста Нажмите «Ввод», чтобы отправить ответ.

Привет!

Мы группа людей которые решили помочь другим в решении их проблем, а так же пользователям с поиском самых свежих и качественных инфопродуктов. За 4 с небольшим месяца мы создали этот форум на который заходят ежедневно тысячи человек и посещаемость постоянно растёт. Мы создали панель лицензирования для защиты PHP скриптов от воровства и SEO панель для мониторинга наших сайтов и выбора верной стратегии их развития. Мы надеемся что то что мы создали пригодится Вам и возможно Вы поможете нам развиваться и совершенствоваться вместе с Вами.

Статистика форума

Темы
359.673
Сообщения
392.653
Пользователи
38.846
Новый пользователь
57534

Приложения форума для iOS и Android


У ркн там нет власти ;)