За последнюю неделю опубликовано 179 новых материалов.
Инструкция новичку Путеводитель по форуму Прокси для Telegram Показать подсказки , это бомба!

Скачать Горы Хаккода / Hakkodasan (1977) BDRip | L1 бесплатно через торрент

  • Поучаствуй (в качестве покупателя) в любых пяти совместных покупках (кроме завершённых и "Моментальных") и получи группу "Новичок" навсегда -> ссылка на раздел
  • Получай до 480 рублей за каждого приглашенного пользователя!
    представляем Вам очередное расширение партнерской программы, подробности описаны тут -> ссылка
  • 90% материалов доступно к скачиванию после простой регистрации!
    Если же ты хочешь скачивать материалы без требования оставлять отзывы то получи группу "Новичок", 10 способов повышения описаны тут -> ссылка
  • К сожалению количество битых ссылок растет и мы уже не можем их оперативно восстанавливать поэтому просим помощи у каждого нашего пользователя.
    С сегодняшнего дня, за каждую восстановленную ссылку мы заплатим Вам.
    Подробнее тут -> ссылка
  • Перенесем твои заслуги с другого ресурса!
    Мы понимаем как сложно прокачивать аккаунты на форумах, вроде раскачал аккаунт, а тут появляется ресурс в 100 раз круче но тоже с системой прокачки и снова качать аккаунт...
    Предлагаем вам перенести Ваши заслуги на другом подобном ресурсе к нам.
    Подробности описаны тут -> ссылка
  • Вы можете получать по 2.5% с каждой покупки и продажи на маркете! Подробности в теме Партнёрская программа
Если Вы не хотите скачивать, Вы всегда можетепосмотретьонлайн, просто нажмите кнопку ниже :

Открыть плеер

Torrent_Bot

Торрент-Бот
Бот форума
4 Окт 2016
125
59
20


Информация о фильме
Название: Горы Хаккода
Оригинальное название: Hakkodasan
Год выхода: 1977
Жанр: Драма, военный
Режиссер: Сиро Моритани
В ролях: Сёго Симада, Кэн Такакура, Хидэдзи Отаки, Кинъя Китаодзи, Тэцуро Тамба, Рэнтаро Микуни, Комаки Курихара, Акира Хамада, Марико Кага, Юдзо Каяма, Кумико Акиёси, Кэнити Като, Рэн Эбата, Кохей Такаяма, Кэйдзю Кобаяси, Кэндзи Ясунага, Такуя Фудзиока, Бэн Хиура

О фильме: Верховное командование величественной Японии ведет приготовления к войне с Российской империей. Вторжение на континент-это серьезная операция, к особенностям которой следует отнестись серьезно. Решено подготовить армию к суровым погодным условиям Сибири. Япония принимает решение провести несколько испытаний для войска. Двум батальонам приходит приказ выполнить переход через горный перевал Хаккода. Генеральный штаб армии императора полностью готов к военным действиям. Два государства стоят на пороге масштабной войны, которая унесет множество жизней и изменит привычный уклад быта.



Страна: Япония
Студия: Hashimoto Productions, Shimano Kikaku Company Ltd., Toho Company
Продолжительность: 02:50:47
Перевод: Любительский (одноголосый) Владислав Данилов

Файл
Кодек: XviD
Качество: BDRip
Видео: 704x288, 23,976 fps, 1832 Кбит/с
Аудио#1: Русский (48 kHz, AC3, 4 ch, 448 Кбит/с)
Аудио#2: Японский (48 kHz, AC3, 4 ch, 448 Кбит/с) отдельно
Субтитры: Отсутствуют

MI
General
Complete name : C:UsersushenDesktopТоррентGora.Hakkoda.1977.BDRipGora.Hakkoda.1977.BDRip.avi
Format : AVI
Format/Info : Audio Video Interleave
Format profile : OpenDML
File size : 2.74 GiB
Duration : 2 h 50 min
Overall bit rate : 2 294 kb/s
Movie name : Горы Хаккода / Hakkodasan (1977) BDRip
Director : Сиро Моритани / Shiro Moritani
Genre : Драма
Writing application : VirtualDubMod 1.5.10.2 (build 2542/release)
Original source form/Name : Художественный фильм
Copyright : Hashimoto Productions, Shimano Kikaku Company Ltd., Toho Company
Comment : Rip by vitolinform

Video
ID : 0
Format : MPEG-4 Visual
Format profile : Advanced [email protected]
Format settings : BVOP2
Format settings, BVOP : 2
Format settings, QPel : No
Format settings, GMC : No warppoints
Format settings, Matrix : Default (MPEG)
Codec ID : XVID
Codec ID/Hint : XviD
Duration : 2 h 50 min
Bit rate : 1 832 kb/s
Width : 704 pixels
Height : 288 pixels
Display aspect ratio : 2.40:1
Frame rate : 29.970 (30000/1001) FPS
Color space : YUV
Chroma subsampling : 4:2:0
Bit depth : 8 bits
Scan type : Progressive
Compression mode : Lossy
Bits/(Pixel*Frame) : 0.301
Stream size : 2.19 GiB (80%)
Writing library : XviD 67

Audio
ID : 1
Format : AC-3
Format/Info : Audio Coding 3
Commercial name : Dolby Digital
Codec ID : 2000
Duration : 2 h 50 min
Bit rate mode : Constant
Bit rate : 448 kb/s
Channel(s) : 4 channels
Channel layout : L R C Cb
Sampling rate : 48.0 kHz
Frame rate : 31.250 FPS (1536 SPF)
Bit depth : 16 bits
Compression mode : Lossy
Stream size : 547 MiB (20%)
Alignment : Split accross interleaves
Interleave, duration : 33 ms (1.00 video frame)
Interleave, preload duration : 500 ms
Title : Russian (VO Владислав Данилов)
Service kind : Complete Main
Скриншоты
 

Вложения

  • 17,3 KB Просмотры: 1
    Личеров 0
    Сидеров 0
    Файлов 2
    Объем 3,3 GB
Ваш e-mail не будет опубликован. Он потребуется для подтверждения Вашего поста.
Оформление текста Нажмите «Ввод», чтобы отправить ответ.

Привет!

Мы группа людей которые решили помочь другим в решении их проблем, а так же пользователям с поиском самых свежих и качественных инфопродуктов. За 4 с небольшим месяца мы создали этот форум на который заходят ежедневно тысячи человек и посещаемость постоянно растёт. Мы создали панель лицензирования для защиты PHP скриптов от воровства и SEO панель для мониторинга наших сайтов и выбора верной стратегии их развития. Мы надеемся что то что мы создали пригодится Вам и возможно Вы поможете нам развиваться и совершенствоваться вместе с Вами.

Статистика форума

Темы
359.630
Сообщения
392.525
Пользователи
38.741
Новый пользователь
ALIK19702

Приложения форума для iOS и Android


У ркн там нет власти ;)