За последнюю неделю опубликовано 165 новых материалов.
Инструкция новичку Путеводитель по форуму Прокси для Telegram Показать подсказки , это бомба!

VA - Discomax [Mixed by A & A Mixmasters] (2012) FLAC

  • Поучаствуй (в качестве покупателя) в любых пяти совместных покупках (кроме завершённых и "Моментальных") и получи группу "Новичок" навсегда -> ссылка на раздел
  • Получай до 480 рублей за каждого приглашенного пользователя!
    представляем Вам очередное расширение партнерской программы, подробности описаны тут -> ссылка
  • 90% материалов доступно к скачиванию после простой регистрации!
    Если же ты хочешь скачивать материалы без требования оставлять отзывы то получи группу "Новичок", 10 способов повышения описаны тут -> ссылка
  • К сожалению количество битых ссылок растет и мы уже не можем их оперативно восстанавливать поэтому просим помощи у каждого нашего пользователя.
    С сегодняшнего дня, за каждую восстановленную ссылку мы заплатим Вам.
    Подробнее тут -> ссылка
  • Перенесем твои заслуги с другого ресурса!
    Мы понимаем как сложно прокачивать аккаунты на форумах, вроде раскачал аккаунт, а тут появляется ресурс в 100 раз круче но тоже с системой прокачки и снова качать аккаунт...
    Предлагаем вам перенести Ваши заслуги на другом подобном ресурсе к нам.
    Подробности описаны тут -> ссылка
  • Вы можете получать по 2.5% с каждой покупки и продажи на маркете! Подробности в теме Партнёрская программа

Torrent_Bot

Торрент-Бот
Бот форума
4 Окт 2016
125
60
20



Название: Discomax (Mixed by A & A Mixmasters)
Исполнитель: VA
Год: 2012
Издание: dwsrecords - LTD-CD-004
Жанр: Italo-Disco
Страна: Russia / Europe

Продолжительность: 01:10:02
Формат/Кодек: FLAC
Битрейт аудио: Lossless
Тип рипа: tracks + .cue
Рип: шарик-off

Трек-лист
01. Various (Mixed by Mr. Acetone) - Megamix Version [111-124 BPM] (14:18)
1.1-Fable Time - Russia
1.2-Tom Hooker - Feeling Okay
1.3-Madonna & MC Miker ''G'' & Deejay Sven - Holiday Rap
1.4-Michael Bedford - Tonight
1.5-Via Verdi - Diamond
1.6-Breakfast Club - Never Be The Same
1.7-Sweet Connection - Need Your Passion
1.8-Spagna - This Generation
1.9-Fun Fun - Capital Girl
1.10-Coo Coo - You Can Set Me Free
02. Various (Mixed by I. Altman) - Mix Version [119-123 BPM] (34:47)
2.1-Madonna & MC Miker ''G'' & Deejay Sven - Holiday Rap
2.2-Michael Bedford - Tonight
2.3-Hugh Bullen - Night Girl
2.4-Breakfast Club - Never Be The Same
2.5-Spagna - This Generation
2.6-J.D. Jaber - Don't Wake Me Up
2.7-P4F - Diamond
2.8-Sweet Connection - Need Your Passion
2.9-Fun Fun - Capital Girl
2.10-Roy - Shooting Star
2.11-Ken Laszlo - Tonight
2.12-T. Ark - Count On Me
2.13-Coo Coo - You Can Set Me Free
03. Various - Samples and FX (7:04)
Additional Bonus Maxi-Single
04. Fable Time - Russia (Maxi Version) (6:22)
05. Fable Time - Russia (Instrumental Version) (3:44)
06. Fable Time - Russia (Single Version) (3:47)Отчёт EAC
Exact Audio Copy V1.3 from 2. September 2016

EAC extraction logfile from 5. February 2019, 22:48

Various / Discomax

Used drive : ASUS DRW-24D5MT Adapter: 0 ID: 1

Read mode : Secure
Utilize accurate stream : Yes
Defeat audio cache : Yes
Make use of C2 pointers : No

Read offset correction : 6
Overread into Lead-In and Lead-Out : No
Fill up missing offset samples with silence : Yes
Delete leading and trailing silent blocks : No
Null samples used in CRC calculations : Yes
Used interface : Installed external ASPI interface
Gap handling : Appended to previous track

Used output format : User Defined Encoder
Selected bitrate : 896 kBit/s
Quality : High
Add ID3 tag : No
Command line compressor : C:program Files (x86)Exact Audio CopyFlacflac.exe
Additional command line options : -8 -V -T "TITLE=%title%" -T "ARTIST=%artist%" -T "ALBUMARTIST=%albumartist%" -T "ALBUM=%albumtitle%" -T "DATE=%year%" -T "TRACKNUMBER=%tracknr%" -T "TRACKTOTAL=%numtracks%" -T "GENRE=%genre%" -T "COMMENT=%comment%" -T "PERFORMER=%albuminterpret%" -T "COMPOSER=%composer%" %source% -o %dest%


TOC of the extracted CD

Track | Start | Length | Start sector | End sector
---------------------------------------------------------
1 | 0:00.00 | 14:17.39 | 0 | 64313
2 | 14:17.39 | 34:47.29 | 64314 | 220867
3 | 49:04.68 | 7:04.11 | 220868 | 252678
4 | 56:09.04 | 6:22.33 | 252679 | 281361
5 | 62:31.37 | 3:44.36 | 281362 | 298197
6 | 66:15.73 | 3:46.38 | 298198 | 315185


Track 1

Filename C:Music
 

Вложения

  • 21,2 KB Просмотры: 1
    Личеров 0
    Сидеров 0
    Файлов 15
    Объем 501,4 MB
Ваш e-mail не будет опубликован. Он потребуется для подтверждения Вашего поста.
Оформление текста Нажмите «Ввод», чтобы отправить ответ.

Привет!

Мы группа людей которые решили помочь другим в решении их проблем, а так же пользователям с поиском самых свежих и качественных инфопродуктов. За 4 с небольшим месяца мы создали этот форум на который заходят ежедневно тысячи человек и посещаемость постоянно растёт. Мы создали панель лицензирования для защиты PHP скриптов от воровства и SEO панель для мониторинга наших сайтов и выбора верной стратегии их развития. Мы надеемся что то что мы создали пригодится Вам и возможно Вы поможете нам развиваться и совершенствоваться вместе с Вами.

Статистика форума

Темы
359.674
Сообщения
392.670
Пользователи
38.888
Новый пользователь
3bibiki

Приложения форума для iOS и Android


У ркн там нет власти ;)