За последнюю неделю опубликовано 175 новых материалов.
Инструкция новичку Путеводитель по форуму Прокси для Telegram Показать подсказки , это бомба!

Скачать Прости, ангел / Plaire, aimer et courir vite (2018) WEBRip 1080p | LakeFilms бесплатно через торрент

  • Поучаствуй (в качестве покупателя) в любых пяти совместных покупках (кроме завершённых и "Моментальных") и получи группу "Новичок" навсегда -> ссылка на раздел
  • Получай до 480 рублей за каждого приглашенного пользователя!
    представляем Вам очередное расширение партнерской программы, подробности описаны тут -> ссылка
  • 90% материалов доступно к скачиванию после простой регистрации!
    Если же ты хочешь скачивать материалы без требования оставлять отзывы то получи группу "Новичок", 10 способов повышения описаны тут -> ссылка
  • К сожалению количество битых ссылок растет и мы уже не можем их оперативно восстанавливать поэтому просим помощи у каждого нашего пользователя.
    С сегодняшнего дня, за каждую восстановленную ссылку мы заплатим Вам.
    Подробнее тут -> ссылка
  • Перенесем твои заслуги с другого ресурса!
    Мы понимаем как сложно прокачивать аккаунты на форумах, вроде раскачал аккаунт, а тут появляется ресурс в 100 раз круче но тоже с системой прокачки и снова качать аккаунт...
    Предлагаем вам перенести Ваши заслуги на другом подобном ресурсе к нам.
    Подробности описаны тут -> ссылка
  • Вы можете получать по 2.5% с каждой покупки и продажи на маркете! Подробности в теме Партнёрская программа
Если Вы не хотите скачивать, Вы всегда можетепосмотретьонлайн, просто нажмите кнопку ниже :

Открыть плеер

Torrent_Bot

Торрент-Бот
Бот форума
4 Окт 2016
125
51
20



Название: Прости, ангел
Оригинальное название: Plaire, aimer et courir vite
Год выпуска: 2018
Жанр:Драма, мелодрама, гей-тема
Выпущено: Франция, Arte France, arte France Cinéma, Canal+ [fr], Palatine Etoile 15
Режиссер: Кристоф Оноре
В ролях: Венсан Лакост, Пьер Деладоншам, Дени Подалидес, Адель Висмес, Томас Гонзалез, Клеман Метейе, Кентен Тибо, Тристан Фарже, Софи Летурнер, Марлен Салдана

О фильме: У 35-летнего писателя Жака ВИЧ, но при этом он не снижает своей сексуальной активности и постоянно находится в поиске нового бойфренда. О том, что Жак уже некоторое время практически банкрот, знает только его сосед Матье, но писатель никак не хочет перестать жить на широкую ногу. Во время командировки на литературный фестиваль в Ренне Жак заходит в кинотеатр, где знакомится с 22-летним бретонцем Артюром. Они начинают словесную пикировку и активно продолжают общение, пока не оказываются в постели. Но Жаку нужно возвращаться в Париж…



Техданные
Качество: WEBRip (1080p)
Видео: MPEG-4 AVC, 9 017 kb/s, 1920x1040, 23.976 FPS
Аудио: AAC, 2 ch, 256 Кбит/с
Продолжительность: 02:13:05
Перевод: Любительский двухголосый закадровый (LakeFilms)
Присутствует реклама!

Скриншоты
MI
General
Unique ID : 319640561173824759957328124319840123264 (0xF0788866ED4DE13194F160E1A370B980)
Complete name : D:новый3Plaire.Aimer.et.Courir.Vite.2018. 1080.WEBRip.LakeFilms.mkv
Format : Matroska
Format version : Version 4
File size : 8.62 GiB
Duration : 2 h 13 min
Overall bit rate : 9 273 kb/s
Encoded date : UTC 2019-01-03 13:16:53
Writing application : mkvmerge v29.0.0 ('Like It Or Not') 64-bit
Writing library : libebml v1.3.6 + libmatroska v1.4.9

Video
ID : 1
Format : AVC
Format/Info : Advanced Video Codec
Format profile : [email protected]
Format settings : CABAC / 4 Ref Frames
Format settings, CABAC : Yes
Format settings, ReFrames : 4 frames
Codec ID : V_MPEG4/ISO/AVC
Duration : 2 h 13 min
Bit rate : 9 017 kb/s
Width : 1 920 pixels
Height : 1 040 pixels
Display aspect ratio : 1.85:1
Frame rate mode : Constant
Frame rate : 23.976 (24000/1001) FPS
Color space : YUV
Chroma subsampling : 4:2:0
Bit depth : 8 bits
Scan type : Progressive
Bits/(Pixel*Frame) : 0.188
Stream size : 8.38 GiB (97%)
Language : English
Default : Yes
Forced : No
Color range : Limited
Color primaries : BT.709
Transfer characteristics : BT.709
Matrix coefficients : BT.709

Audio
ID : 2
Format : AAC LC
Format/Info : Advanced Audio Codec Low Complexity
Codec ID : A_AAC-2
Duration : 2 h 13 min
Bit rate : 253 kb/s
Channel(s) : 2 channels
Channel layout : L R
Sampling rate : 48.0 kHz
Frame rate : 46.875 FPS (1024 SPF)
Compression mode : Lossy
Stream size : 241 MiB (3%)
Language : English
Default : Yes
Forced : No
 

Вложения

  • 22,5 KB Просмотры: 1
    Личеров 0
    Сидеров 0
    Файлов 1
    Объем 8,6 GB
Ваш e-mail не будет опубликован. Он потребуется для подтверждения Вашего поста.
Оформление текста Нажмите «Ввод», чтобы отправить ответ.

Привет!

Мы группа людей которые решили помочь другим в решении их проблем, а так же пользователям с поиском самых свежих и качественных инфопродуктов. За 4 с небольшим месяца мы создали этот форум на который заходят ежедневно тысячи человек и посещаемость постоянно растёт. Мы создали панель лицензирования для защиты PHP скриптов от воровства и SEO панель для мониторинга наших сайтов и выбора верной стратегии их развития. Мы надеемся что то что мы создали пригодится Вам и возможно Вы поможете нам развиваться и совершенствоваться вместе с Вами.

Статистика форума

Темы
356.950
Сообщения
389.012
Пользователи
37.108
Новый пользователь
maxim_ivanov_00

Приложения форума для iOS и Android


У ркн там нет власти ;)