За последнюю неделю опубликовано 167 новых материалов.
Инструкция новичку Путеводитель по форуму Прокси для Telegram Показать подсказки , это бомба!

Скачать Шультес (2008) DVDRip-AVC бесплатно через торрент

  • Поучаствуй (в качестве покупателя) в любых пяти совместных покупках (кроме завершённых и "Моментальных") и получи группу "Новичок" навсегда -> ссылка на раздел
  • Получай до 480 рублей за каждого приглашенного пользователя!
    представляем Вам очередное расширение партнерской программы, подробности описаны тут -> ссылка
  • 90% материалов доступно к скачиванию после простой регистрации!
    Если же ты хочешь скачивать материалы без требования оставлять отзывы то получи группу "Новичок", 10 способов повышения описаны тут -> ссылка
  • К сожалению количество битых ссылок растет и мы уже не можем их оперативно восстанавливать поэтому просим помощи у каждого нашего пользователя.
    С сегодняшнего дня, за каждую восстановленную ссылку мы заплатим Вам.
    Подробнее тут -> ссылка
  • Перенесем твои заслуги с другого ресурса!
    Мы понимаем как сложно прокачивать аккаунты на форумах, вроде раскачал аккаунт, а тут появляется ресурс в 100 раз круче но тоже с системой прокачки и снова качать аккаунт...
    Предлагаем вам перенести Ваши заслуги на другом подобном ресурсе к нам.
    Подробности описаны тут -> ссылка
  • Вы можете получать по 2.5% с каждой покупки и продажи на маркете! Подробности в теме Партнёрская программа
Если Вы не хотите скачивать, Вы всегда можетепосмотретьонлайн, просто нажмите кнопку ниже :

Открыть плеер

Torrent_Bot

Торрент-Бот
Бот форума
4 Окт 2016
125
51
20


Информация о фильме
Название: Шультес
Год выхода: 2008
Жанр: драма, криминал
Режиссер: Бакур Бакурадзе
В ролях: Гела Читава, Руслан Гребенкин, Любовь Фирсова, Сесиль Плеже, Вадим Суслов

О фильме: Лёша Шультес, бывший спортсмен, получивший серьезную травму в автомобильной аварии, становится вором-карманником. Это единственный для него способ коммуникации с внешним миром. Он живет одинокой жизнью вместе с больной матерью, ворует и изредка навещает в армии своего младшего брата. В его жизни нет места любви, дружбе, человеческим привязанностям.
Однажды в его руки попадает видеопослание молодой девушки, которую он обокрал накануне. Столкновение с чужой жизнью и чужими чувствами приводит Шультеса к необдуманным поступкам.



Страна: Россия / Кинокомпания CTB
Продолжительность: 01:39:13
Перевод: оригинал

Файл
Качество: DVDRip-AVC
Формат: MKV
Видео: MPEG-4 AVC, 2600 Кбит/сек, 1024x576
Звук: AC3, 6 ch, 448 Кбит/сек
Субтитры: нет

MediaInfo:
Общее
Уникальный идентификатор : 272388653210495677109054517712294224426 (0xCCEC2578B2700AE543595273ECF7A22A)
Полное имя : H:(С, НА) РАБОТ(Ы, У)2. ФИЛЬМЫШультес (2008) DVD9Shultes_2008 DVDRip-AVC.mkv
Формат : Matroska
Версия формата : Version 4
Размер файла : 2,11 Гбайт
Продолжительность : 1 ч. 39 м.
Общий поток : 3042 Кбит/сек
Программа кодирования : XviD4PSP 7.0.458 DAILY
Библиотека кодирования : Lavf57.71.100
Авторское право : [ZsU®]
ENCODING_INFO : MATROSKA,WEBM > MKV Пользовательский / H264 > X264 ABR 2600kbps HQ / AC3 > AC3 CBR 448kbps

Видео
Идентификатор : 1
Формат : AVC
Формат/Информация : Advanced Video Codec
Профиль формата : [email protected]
Настройки формата : CABAC / 10 Ref Frames
Параметр CABAC формата : Да
Параметр RefFrames формата : 10 кадров
Идентификатор кодека : V_MPEG4/ISO/AVC
Продолжительность : 1 ч. 39 м.
Битрейт : 2600 Кбит/сек
Ширина : 1024 пикселя
Высота : 576 пикселей
Соотношение сторон : 16:9
Режим частоты кадров : Постоянный
Частота кадров : 23,976 (24000/1001) кадра/сек
Цветовое пространство : YUV
Субдискретизация насыщенности : 4:2:0
Битовая глубина : 8 бит
Тип развёртки : Прогрессивная
Бит/(Пиксели*Кадры) : 0.184
Размер потока : 1,76 Гбайт (83%)
Библиотека кодирования : x264 core 157 r2901M 7d0ff22
Настройки программы : cabac=1 / ref=10 / deblock=1:-3:-3 / analyse=0x3:0x133 / me=umh / subme=11 / psy=1 / psy_rd=1.00:0.20 / mixed_ref=1 / me_range=32 / chroma_me=1 / trellis=2 / 8x8dct=1 / cqm=0 / deadzone=21,11 / fast_pskip=1 / chroma_qp_offset=-3 / threads=11 / lookahead_threads=1 / sliced_threads=0 / nr=0 / decimate=1 / interlaced=0 / bluray_compat=0 / constrained_intra=0 / bframes=10 / b_pyramid=2 / b_adapt=1 / b_bias=10 / direct=1 / weightb=1 / open_gop=0 / weightp=1 / keyint=240 / keyint_min=24 / scenecut=40 / intra_refresh=0 / rc_lookahead=40 / rc=abr / mbtree=1 / bitrate=2600 / ratetol=1.0 / qcomp=0.60 / qpmin=0 / qpmax=69 / qpstep=4 / ip_ratio=1.40 / aq=1:1.00
Язык : Russian
Default : Да
Forced : Нет
Цветовой диапазон : Limited
Основные цвета : BT.709
Характеристики трансфера : BT.709
Коэффициенты матрицы : BT.709

Аудио
Идентификатор : 2
Формат : AC-3
Формат/Информация : Audio Coding 3
Коммерческое название : Dolby Digital
Идентификатор кодека : A_AC3
Продолжительность : 1 ч. 39 м.
Вид битрейта : Постоянный
Битрейт : 448 Кбит/сек
Каналы : 6 каналов
Channel layout : L R C LFE Ls Rs
Частота : 48,0 КГц
Частота кадров : 31,250 кадров/сек (1536 SPF)
Битовая глубина : 16 бит
Метод сжатия : С потерями
Размер потока : 318 Мбайт (15%)
Заголовок : (License)
Язык : Russian
Default : Да
Forced : Нет
Скриншоты
СЕМПЛ
Без рекламы
 

Вложения

  • 11,8 KB Просмотры: 0
    Личеров 0
    Сидеров 0
    Файлов 1
    Объем 2,1 GB
Ваш e-mail не будет опубликован. Он потребуется для подтверждения Вашего поста.
Оформление текста Нажмите «Ввод», чтобы отправить ответ.

Привет!

Мы группа людей которые решили помочь другим в решении их проблем, а так же пользователям с поиском самых свежих и качественных инфопродуктов. За 4 с небольшим месяца мы создали этот форум на который заходят ежедневно тысячи человек и посещаемость постоянно растёт. Мы создали панель лицензирования для защиты PHP скриптов от воровства и SEO панель для мониторинга наших сайтов и выбора верной стратегии их развития. Мы надеемся что то что мы создали пригодится Вам и возможно Вы поможете нам развиваться и совершенствоваться вместе с Вами.

Статистика форума

Темы
356.970
Сообщения
389.068
Пользователи
37.153
Новый пользователь
Eugene1968

Приложения форума для iOS и Android


У ркн там нет власти ;)