За последнюю неделю опубликовано 167 новых материалов.
Инструкция новичку Путеводитель по форуму Прокси для Telegram Показать подсказки , это бомба!

Дальше по коридору / Down a Dark Hall (2018) BDRip 720p от селезень | iTunes

  • Поучаствуй (в качестве покупателя) в любых пяти совместных покупках (кроме завершённых и "Моментальных") и получи группу "Новичок" навсегда -> ссылка на раздел
  • Получай до 480 рублей за каждого приглашенного пользователя!
    представляем Вам очередное расширение партнерской программы, подробности описаны тут -> ссылка
  • 90% материалов доступно к скачиванию после простой регистрации!
    Если же ты хочешь скачивать материалы без требования оставлять отзывы то получи группу "Новичок", 10 способов повышения описаны тут -> ссылка
  • К сожалению количество битых ссылок растет и мы уже не можем их оперативно восстанавливать поэтому просим помощи у каждого нашего пользователя.
    С сегодняшнего дня, за каждую восстановленную ссылку мы заплатим Вам.
    Подробнее тут -> ссылка
  • Перенесем твои заслуги с другого ресурса!
    Мы понимаем как сложно прокачивать аккаунты на форумах, вроде раскачал аккаунт, а тут появляется ресурс в 100 раз круче но тоже с системой прокачки и снова качать аккаунт...
    Предлагаем вам перенести Ваши заслуги на другом подобном ресурсе к нам.
    Подробности описаны тут -> ссылка
  • Вы можете получать по 2.5% с каждой покупки и продажи на маркете! Подробности в теме Партнёрская программа
Если Вы не хотите скачивать, Вы всегда можетепосмотретьонлайн, просто нажмите кнопку ниже :

Открыть плеер

Torrent_Bot

Торрент-Бот
Бот форума
4 Окт 2016
125
60
20


Информация о фильме
Название: Дальше по коридору
Оригинальное название: Down a Dark Hall
Год выхода: 2018
Жанр: Ужасы, фэнтези, триллер, драма
Режиссер: Родриго Кортес
В ролях: Анна-София Робб, Ума Турман, Изабель Фурман, Виктория Моролес, Ной Сильвер, Тейлор Расселл, Рози Дэй, Ребекка Фронт, Джоди Мэй, Пип Торренс



О фильме: Трудный подросток Кит Горди никак не может смириться со смертью отца, которая произошла несколько лет назад. Девушка бунтует и своим поведением добивается того, что ее отправляют в школу-интернат Блэквуд. Кроме нее туда прибывают еще четыре проблемные ученицы, в каждой из которых директриса мадам Дюрэ намерена увидеть скрытый талант и вытащить его наружу. Девушки вскоре и впрямь обнаруживают недюжинные способности в разных областях науки и искусства, но Кит чувствует, что что-то тут не так.

Страна: Испания, США
Студия: Fickle Fish Films,Nostromo Pictures,Temple Hill Entertainment
Продолжительность: 01:36:25
Перевод: Профессиональный многоголосый | iTunes

Качество: BDRip 720p
Видео: MPEG-4 AVC, 1280x536, 7012 Kbit/s, 23.976 fps
Звук:
Аудио #01: 48 kHz, AC3, 5.1, 384 Kbps | iTunes | RUS |
Аудио #02: 48 kHz, AC3, 5.1, 640 Kbps | Оригинал | ENG |
Субтитры: Русские (Full), английские



MI
Down a Dark HallGeneral
Unique ID : 596372080792133378957619080991226927 (0x72DB69E97B291CF9E2F06C6B663C2F)
Complete name : D:Video111Down.a.Dark.Hall.2018.BDRip.720p.selezen.mkv
Format : Matroska
Format version : Version 4
File size : 5.41 GiB
Duration : 1 h 36 min
Overall bit rate : 8 038 kb/s
Movie name : Down.a.Dark.Hall.2018 from селезень
Encoded date : UTC 2018-11-27 22:55:30
Writing application : mkvmerge v28.2.0 ('The Awakening') 64-bit
Writing library : libebml v1.3.6 + libmatroska v1.4.9

Video
ID : 1
Format : AVC
Format/Info : Advanced Video Codec
Format profile : [email protected]
Format settings : CABAC / 12 Ref Frames
Format settings, CABAC : Yes
Format settings, ReFrames : 12 frames
Codec ID : V_MPEG4/ISO/AVC
Duration : 1 h 36 min
Bit rate : 7 012 kb/s
Width : 1 280 pixels
Height : 536 pixels
Display aspect ratio : 2.40:1
Frame rate mode : Constant
Frame rate : 23.976 (24000/1001) FPS
Color space : YUV
Chroma subsampling : 4:2:0
Bit depth : 8 bits
Scan type : Progressive
Bits/(Pixel*Frame) : 0.426
Stream size : 4.72 GiB (87%)
Title : playHD
Writing library : x264 core 155 r2867+82 a249126 t_mod_Custom_2 [[email protected] X86_64]
Encoding settings : cabac=1 / ref=12 / deblock=1:-3:-3 / analyse=0x3:0x133 / me=umh / subme=10 / psy=1 / fade_compensate=0.00 / psy_rd=1.00:0.00 / mixed_ref=1 / me_range=32 / chroma_me=1 / trellis=2 / 8x8dct=1 / cqm=0 / deadzone=21,11 / fast_pskip=0 / chroma_qp_offset=-2 / threads=17 / lookahead_threads=2 / sliced_threads=0 / nr=0 / decimate=0 / interlaced=0 / bluray_compat=0 / constrained_intra=0 / fgo=0 / bframes=9 / b_pyramid=2 / b_adapt=2 / b_bias=0 / direct=3 / weightb=1 / open_gop=0 / weightp=2 / keyint=250 / keyint_min=23 / scenecut=40 / intra_refresh=0 / rc_lookahead=60 / rc=crf / mbtree=0 / crf=16.2000 / qcomp=0.60 / qpmin=0:0:0 / qpmax=69:69:69 / qpstep=4 / vbv_maxrate=62500 / vbv_bufsize=78125 / crf_max=0.0 / nal_hrd=none / filler=0 / ip_ratio=1.35 / pb_ratio=1.25 / aq=3:0.85 / aq-sensitivity=10.00 / aq-factor=1.00:1.00:1.00 / aq2=0 / aq3=0 / zones=128482,135264,b=0.5/135265,138334,b=0.7
Language : English
Default : Yes
Forced : No

Audio #1
ID : 2
Format : AC-3
Format/Info : Audio Coding 3
Commercial name : Dolby Digital
Codec ID : A_AC3
Duration : 1 h 36 min
Bit rate mode : Constant
Bit rate : 384 kb/s
Channel(s) : 6 channels
Channel layout : L R C LFE Ls Rs
Sampling rate : 48.0 kHz
Frame rate : 31.250 FPS (1536 SPF)
Bit depth : 16 bits
Compression mode : Lossy
Stream size : 265 MiB (5%)
Title : iTunes
Language : Russian
Service kind : Complete Main
Default : Yes
Forced : Yes

Audio #2
ID : 3
Format : AC-3
Format/Info : Audio Coding 3
Commercial name : Dolby Digital
Codec ID : A_AC3
Duration : 1 h 36 min
Bit rate mode : Constant
Bit rate : 640 kb/s
Channel(s) : 6 channels
Channel layout : L R C LFE Ls Rs
Sampling rate : 48.0 kHz
Frame rate : 31.250 FPS (1536 SPF)
Bit depth : 16 bits
Compression mode : Lossy
Stream size : 441 MiB (8%)
Title : Original
Language : English
Service kind : Complete Main
Default : No
Forced : No

Text #1
ID : 4
Format : UTF-8
Codec ID : S_TEXT/UTF8
Codec ID/Info : UTF-8 Plain Text
Duration : 1 h 27 min
Bit rate : 79 b/s
Count of elements : 955
Stream size : 50.8 KiB (0%)
Title : Full
Language : Russian
Default : No
Forced : No

Text #2
ID : 5
Format : UTF-8
Codec ID : S_TEXT/UTF8
Codec ID/Info : UTF-8 Plain Text
Duration : 1 h 27 min
Bit rate : 44 b/s
Count of elements : 1062
Stream size : 28.6 KiB (0%)
Title : Full
Language : English
Default : No
Forced : No

Text #3
ID : 6
Format : UTF-8
Codec ID : S_TEXT/UTF8
Codec ID/Info : UTF-8 Plain Text
Duration : 1 h 35 min
Bit rate : 45 b/s
Count of elements : 1242
Stream size : 32.2 KiB (0%)
Title : SDH
Language : English
Default : No
Forced : No

Menu
00:00:00.000 : :00:00:00.000
00:06:26.177 : :00:06:26.177
00:11:25.685 : :00:11:25.685
00:16:55.139 : :00:16:55.139
00:21:04.638 : :00:21:04.638
00:28:22.701 : :00:28:22.701
00:33:12.199 : :00:33:12.199
00:39:07.428 : :00:39:07.428
00:44:45.391 : :00:44:45.391
00:48:40.835 : :00:48:40.835
00:55:53.600 : :00:55:53.600
01:01:56.880 : :01:01:56.880
01:07:30.380 : :01:07:30.380
01:11:28.493 : :01:11:28.493
01:16:18.115 : :01:16:18.115
01:26:23.428 : :01:26:23.428

Релиз от:

 

Вложения

  • 110 KB Просмотры: 1
    Личеров 0
    Сидеров 0
    Файлов 1
    Объем 5,4 GB
Ваш e-mail не будет опубликован. Он потребуется для подтверждения Вашего поста.
Оформление текста Нажмите «Ввод», чтобы отправить ответ.

Привет!

Мы группа людей которые решили помочь другим в решении их проблем, а так же пользователям с поиском самых свежих и качественных инфопродуктов. За 4 с небольшим месяца мы создали этот форум на который заходят ежедневно тысячи человек и посещаемость постоянно растёт. Мы создали панель лицензирования для защиты PHP скриптов от воровства и SEO панель для мониторинга наших сайтов и выбора верной стратегии их развития. Мы надеемся что то что мы создали пригодится Вам и возможно Вы поможете нам развиваться и совершенствоваться вместе с Вами.

Статистика форума

Темы
359.674
Сообщения
392.663
Пользователи
38.874
Новый пользователь
Валера228

Приложения форума для iOS и Android


У ркн там нет власти ;)