За последнюю неделю опубликовано 125 новых материалов.
Инструкция новичку Путеводитель по форуму Прокси для Telegram Показать подсказки , это бомба!

Не говорите моему шефу / Non dirlo al mio capo [01x01-06 из 12] (2016) HDTVRip 720p | GreenРай Studio

  • Поучаствуй (в качестве покупателя) в любых пяти совместных покупках (кроме завершённых и "Моментальных") и получи группу "Новичок" навсегда -> ссылка на раздел
  • Получай до 480 рублей за каждого приглашенного пользователя!
    представляем Вам очередное расширение партнерской программы, подробности описаны тут -> ссылка
  • 90% материалов доступно к скачиванию после простой регистрации!
    Если же ты хочешь скачивать материалы без требования оставлять отзывы то получи группу "Новичок", 10 способов повышения описаны тут -> ссылка
  • К сожалению количество битых ссылок растет и мы уже не можем их оперативно восстанавливать поэтому просим помощи у каждого нашего пользователя.
    С сегодняшнего дня, за каждую восстановленную ссылку мы заплатим Вам.
    Подробнее тут -> ссылка
  • Перенесем твои заслуги с другого ресурса!
    Мы понимаем как сложно прокачивать аккаунты на форумах, вроде раскачал аккаунт, а тут появляется ресурс в 100 раз круче но тоже с системой прокачки и снова качать аккаунт...
    Предлагаем вам перенести Ваши заслуги на другом подобном ресурсе к нам.
    Подробности описаны тут -> ссылка
  • Вы можете получать по 2.5% с каждой покупки и продажи на маркете! Подробности в теме Партнёрская программа
Если Вы не хотите скачивать, Вы всегда можетепосмотретьонлайн, просто нажмите кнопку ниже :

Открыть плеер

Torrent_Bot

Торрент-Бот
Бот форума
4 Окт 2016
125
61
20
Информация о фильме
Название: Не говорите моему шефу
Оригинальное название: Non dirlo al mio capo
Год выпуска: 2016
Жанр:драма, комедия
Страна: Италия, Lux Vide S.p.a., Rai Fiction
Режиссер: Джулио Манфредония
В ролях: Ванесса Инконтрада, Лино Гуанчале, Кьяра Фанчини, Джорджия Сурина, Андреа Боска, Людовика Кошоне, Давиде Пульезе, Саул Нанни, Магдалена Грочовска, Массимо Де Франкович, Розанна Мендуни Де Росси, Федерико Риккардо Росси

О фильме: Лиза Марчелли пытается пережить смерть мужа. Она осталась вдовой с двумя маленькими детьми на руках. У Лизы нет денег, работу найти никак не удается. Однако совершенно случайно выпадает возможность устроиться на работу в небольшое адвокатское бюро, которым руководит молодой человек по имени Энрико Винчи. Парень достаточно симпатичный, потому Лиза немного теряет голову при виде своего начальника. У Энрико есть одна особенность: он не переносит детей. Сложно будет наладить отношения с таким человеком, когда у тебя двое подрастающих разбойников.



Файл
Качество: HDTVRip 720p
Видео данные: MKV, 1280x720 (16:9), 25.000 fps, 2855 Кбит/с
Аудио данные: AC3, 2 ch, 192 Кбит/с
Перевод: Любительский многоголосый (GreenРай Studio)
Продолжительность: 6 x 00:54:00

Медиаинфо
General
Unique ID : 183810511179228518755837666242081755430 (0x8A489DE3CEC7632FB4A8461CCF4A9126)
Complete name : C:Non.dirlo.al.mio.capo.S01.HDTV.720pNon.dirlo.al.mio.capo.S01E01.HDTV.720p.mkv
Format : Matroska
Format version : Version 4
File size : 1.18 GiB
Duration : 54 min 8 s
Overall bit rate : 3 109 kb/s
Encoded date : UTC 2018-09-27 07:34:26
Writing application : mkvmerge v6.5.0 ('Isn't she lovely') built on Oct 20 2013 12:50:05
Writing library : libebml v1.3.0 + libmatroska v1.4.1

Video
ID : 1
Format : AVC
Format/Info : Advanced Video Codec
Format profile : [email protected]
Format settings : CABAC / 4 Ref Frames
Format settings, CABAC : Yes
Format settings, RefFrames : 4 frames
Codec ID : V_MPEG4/ISO/AVC
Duration : 54 min 8 s
Bit rate : 2 855 kb/s
Width : 1 280 pixels
Height : 720 pixels
Display aspect ratio : 16:9
Frame rate mode : Constant
Frame rate : 25.000 FPS
Color space : YUV
Chroma subsampling : 4:2:0
Bit depth : 8 bits
Scan type : Progressive
Bits/(Pixel*Frame) : 0.124
Stream size : 1.08 GiB (92%)
Writing library : x264 core 146 r2538 121396c
Encoding settings : cabac=1 / ref=1 / deblock=1:0:0 / analyse=0x3:0x113 / me=hex / subme=2 / psy=1 / psy_rd=1.00:0.00 / mixed_ref=0 / me_range=16 / chroma_me=1 / trellis=0 / 8x8dct=1 / cqm=0 / deadzone=21,11 / fast_pskip=1 / chroma_qp_offset=0 / threads=9 / lookahead_threads=3 / sliced_threads=0 / nr=0 / decimate=1 / interlaced=0 / bluray_compat=0 / constrained_intra=0 / bframes=3 / b_pyramid=2 / b_adapt=1 / b_bias=0 / direct=1 / weightb=1 / open_gop=0 / weightp=1 / keyint=250 / keyint_min=25 / scenecut=40 / intra_refresh=0 / rc_lookahead=10 / rc=crf / mbtree=1 / crf=17.0 / qcomp=0.60 / qpmin=0 / qpmax=69 / qpstep=4 / ip_ratio=1.40 / aq=1:1.00
Default : Yes
Forced : No

Audio
ID : 2
Format : AC-3
Format/Info : Audio Coding 3
Commercial name : Dolby Digital
Codec ID : A_AC3
Duration : 54 min 8 s
Bit rate mode : Constant
Bit rate : 192 kb/s
Channel(s) : 2 channels
Channel layout : L R
Sampling rate : 48.0 kHz
Frame rate : 31.250 FPS (1536 SPF)
Bit depth : 16 bits
Compression mode : Lossy
Stream size : 74.4 MiB (6%)
Service kind : Complete Main
Default : Yes
Forced : No

Внимание, имеется видео и аудио реклама от спонсора показа

Скриншоты

Релиз от:
 

Вложения

  • 137,6 KB Просмотры: 1
    Личеров 0
    Сидеров 0
    Файлов 6
    Объем 6,8 GB
Ваш e-mail не будет опубликован. Он потребуется для подтверждения Вашего поста.
Оформление текста Нажмите «Ввод», чтобы отправить ответ.

Привет!

Мы группа людей которые решили помочь другим в решении их проблем, а так же пользователям с поиском самых свежих и качественных инфопродуктов. За 4 с небольшим месяца мы создали этот форум на который заходят ежедневно тысячи человек и посещаемость постоянно растёт. Мы создали панель лицензирования для защиты PHP скриптов от воровства и SEO панель для мониторинга наших сайтов и выбора верной стратегии их развития. Мы надеемся что то что мы создали пригодится Вам и возможно Вы поможете нам развиваться и совершенствоваться вместе с Вами.

Статистика форума

Темы
359.704
Сообщения
392.787
Пользователи
39.035
Новый пользователь
Anatolj

Приложения форума для iOS и Android


У ркн там нет власти ;)