За последнюю неделю опубликовано 206 новых материалов.
Инструкция новичку Путеводитель по форуму Прокси для Telegram Показать подсказки , это бомба!

Скачать Виват, гардемарины! (1991) DVDRip-AVC от KORSAR бесплатно через торрент

  • Получай до 480 рублей за каждого приглашенного пользователя!
    представляем Вам очередное расширение партнерской программы, подробности описаны тут -> ссылка
  • 90% материалов доступно к скачиванию после простой регистрации!
    Если же ты хочешь скачивать материалы без требования оставлять отзывы то получи группу "Новичок", 10 способов повышения описаны тут -> ссылка
  • К сожалению количество битых ссылок растет и мы уже не можем их оперативно восстанавливать поэтому просим помощи у каждого нашего пользователя.
    С сегодняшнего дня, за каждую восстановленную ссылку мы заплатим Вам.
    Подробнее тут -> ссылка
  • Перенесем твои заслуги с другого ресурса!
    Мы понимаем как сложно прокачивать аккаунты на форумах, вроде раскачал аккаунт, а тут появляется ресурс в 100 раз круче но тоже с системой прокачки и снова качать аккаунт...
    Предлагаем вам перенести Ваши заслуги на другом подобном ресурсе к нам.
    Подробности описаны тут -> ссылка
  • Вы можете получать по 2.5% с каждой покупки и продажи на маркете! Подробности в теме Партнёрская программа
Если Вы не хотите скачивать, Вы всегда можете посмотреть онлайн, просто нажмите кнопку ниже :

Открыть плеер

Torrent_Bot

Торрент-Бот
Бот форума
4 Окт 2016
125
43
20
Информация о фильме
Название: Виват, гардемарины!
Год выхода: 1991
Жанр:Мелодрама, приключения, история
Режиссёр: Светлана Дружинина
В ролях: Дмитрий Харатьян, Сергей Жигунов, Михаил Мамаев, Людмила Гурченко, Кристина Орбакайте, Михаил Боярский, Наталья Гундарева, Татьяна Лютаева, Л. Ванин, Евгений Евстигнеев, Михаил Ефремов, Ольга Машная, Паул Буткевич, Сергей Мигицко, Лидия Федосеева-Шукшина, Сергей Никоненко, Владимир Сошальский, Виктор Борцов, Владимир Балон, Леонид Сатановский

О фильме: В основе авантюрно-приключенческого фильма о гардемаринах исторический факт - приезд в Россию инкогнито в 1744 году невесты наследника престола Петра III Софьи Фредерики Ангальт-Цербстской, будущей императрицы Екатерины II.



Выпущено: СССР
Продолжительность: 02:12:24
Перевод: Не требуется

Файл
Качество: DVDRip-AVC
Видео: MPEG-4 AVC, [email protected], 2000 Кбит/с, 25.000 fps
Аудио 1: AC3, 6 ch, 448 Кбит/с
Аудио 2: AC3, 1 ch, 224 Кбит/с
Субтитры: Нет
Навигация по главам: Есть

Релиз от:

Скриншоты

MediaInfo
x264 [info]: frame I:1104 Avg QP:16.66 size: 62868
x264 [info]: frame P:45478 Avg QP:19.32 size: 22345
x264 [info]: frame B:152041 Avg QP:21.07 size: 5923

=====================================

Общее
Уникальный идентификатор : 185114334072759971101775882108347360181 (0x8B43B952561B652AB177395C39F423B5)
Полное имя : Виват.гардемарины.1991.DVDRip-AVC.KORSAR.mkv
Формат : Matroska
Версия формата : Version 2
Размер файла : 2,47 Гбайт
Продолжительность : 2 ч. 12 м.
Общий поток : 2671 Кбит/сек
Дата кодирования : UTC 2017-02-21 12:42:32
Программа кодирования : mkvmerge v5.8.0 ('No Sleep / Pillow') built on Sep 2 2012 15:37:04
Библиотека кодирования : libebml v1.2.3 + libmatroska v1.3.0

Видео
Идентификатор : 1
Формат : AVC
Формат/Информация : Advanced Video Codec
Профиль формата : [email protected]
Параметр CABAC формата : Да
Параметр ReFrames формата : 16 кадров
Идентификатор кодека : V_MPEG4/ISO/AVC
Продолжительность : 2 ч. 12 м.
Битрейт : 2000 Кбит/сек
Ширина : 720 пикселей
Высота : 576 пикселей
Соотношение сторон : 4:3
Режим частоты кадров : Постоянный
Частота кадров : 25,000 кадров/сек
Стандарт вещания : PAL
Цветовое пространство : YUV
Субдискретизация насыщенности : 4:2:0
Битовая глубина : 8 бит
Тип развёртки : Прогрессивная
Бит/(Пиксели*Кадры) : 0.193
Размер потока : 1,80 Гбайт (73%)
Заголовок : Виват.гардемарины.1991.DVDRip-AVC.KORSAR
Библиотека кодирования : x264 core 148 r2744kMod b97ae06
Настройки программы : cabac=1 / ref=16 / deblock=1:-2:-2 / analyse=0x3:0x133 / me=umh / subme=10 / psy=1 / fade_compensate=0.00 / psy_rd=1.05:0.10 / mixed_ref=1 / me_range=32 / chroma_me=1 / trellis=2 / 8x8dct=1 / cqm=0 / deadzone=21,11 / fast_pskip=0 / chroma_qp_offset=-3 / threads=12 / lookahead_threads=3 / sliced_threads=0 / nr=0 / decimate=0 / interlaced=0 / bluray_compat=0 / constrained_intra=0 / bframes=11 / b_pyramid=2 / b_adapt=2 / b_bias=0 / direct=3 / weightb=1 / open_gop=0 / weightp=2 / keyint=250 / keyint_min=25 / scenecut=40 / intra_refresh=0 / rc=2pass / mbtree=0 / bitrate=2000 / ratetol=1.0 / qcomp=0.63 / qpmin=0 / qpmax=39 / qpstep=4 / cplxblur=20.0 / qblur=0.5 / ip_ratio=1.25 / pb_ratio=1.30 / aq=2:1.00
Язык : English
Default : Да
Forced : Нет
Цветовой диапазон : Limited
Основные цвета : BT.601 PAL
Характеристики трансфера : BT.470 System B, BT.470 System G
Коэффициенты матрицы : BT.601

Аудио #1
Идентификатор : 2
Формат : AC-3
Формат/Информация : Audio Coding 3
Расширение режима : CM
Параметр Endianness формата : Big
Идентификатор кодека : A_AC3
Продолжительность : 2 ч. 12 м.
Вид битрейта : Постоянный
Битрейт : 448 Кбит/сек
Каналы : 6 каналов
Расположение каналов : Front: L C R, Side: L R, LFE
Частота : 48,0 КГц
Частота кадров : 31,250 кадров/сек (1536 spf)
Битовая глубина : 16 бит
Метод сжатия : С потерями
Размер потока : 424 Мбайт (17%)
Язык : Russian
Default : Да
Forced : Нет

Аудио #2
Идентификатор : 3
Формат : AC-3
Формат/Информация : Audio Coding 3
Расширение режима : CM
Параметр Endianness формата : Big
Идентификатор кодека : A_AC3
Продолжительность : 2 ч. 12 м.
Вид битрейта : Постоянный
Битрейт : 224 Кбит/сек
Каналы : 1 канал
Расположение каналов : Front: C
Частота : 48,0 КГц
Частота кадров : 31,250 кадров/сек (1536 spf)
Битовая глубина : 16 бит
Метод сжатия : С потерями
Размер потока : 212 Мбайт (8%)
Язык : Russian
Default : Нет
Forced : Нет

Меню
00:00:00.000 : en:Chapter 1
00:11:03.480 : en:Chapter 2
00:18:24.440 : en:Chapter 3
00:27:55.160 : en:Chapter 4
00:34:03.360 : en:Chapter 5
00:41:20.480 : en:Chapter 6
00:49:41.520 : en:Chapter 7
00:57:43.560 : en:Chapter 8
01:01:41.320 : en:Chapter 9
01:06:21.240 : en:Chapter 10
01:10:06.080 : en:Chapter 11
01:21:49.720 : en:Chapter 12
01:33:45.840 : en:Chapter 13
01:40:48.520 : en:Chapter 14
01:46:08.480 : en:Chapter 15
01:53:03.320 : en:Chapter 16
01:59:09.480 : en:Chapter 17
02:06:28.200 : en:Chapter 18
02:11:50.360 : en:Chapter 19
 

Вложения

  • 13,4 KB Просмотры: 0
    Личеров 0
    Сидеров 0
    Файлов 1
    Объем 2,5 GB
Ваш e-mail не будет опубликован. Он потребуется для подтверждения Вашего поста.
Оформление текста Нажмите «Ввод», чтобы отправить ответ.