За последнюю неделю опубликовано 154 новых материалов.
Инструкция новичку Путеводитель по форуму Прокси для Telegram Показать подсказки , это бомба!

Доктор Фрост / Dr. Frost [01-10] (2014) TVRip | L2

  • Поучаствуй (в качестве покупателя) в любых пяти совместных покупках (кроме завершённых и "Моментальных") и получи группу "Новичок" навсегда -> ссылка на раздел
  • Получай до 480 рублей за каждого приглашенного пользователя!
    представляем Вам очередное расширение партнерской программы, подробности описаны тут -> ссылка
  • 90% материалов доступно к скачиванию после простой регистрации!
    Если же ты хочешь скачивать материалы без требования оставлять отзывы то получи группу "Новичок", 10 способов повышения описаны тут -> ссылка
  • К сожалению количество битых ссылок растет и мы уже не можем их оперативно восстанавливать поэтому просим помощи у каждого нашего пользователя.
    С сегодняшнего дня, за каждую восстановленную ссылку мы заплатим Вам.
    Подробнее тут -> ссылка
  • Перенесем твои заслуги с другого ресурса!
    Мы понимаем как сложно прокачивать аккаунты на форумах, вроде раскачал аккаунт, а тут появляется ресурс в 100 раз круче но тоже с системой прокачки и снова качать аккаунт...
    Предлагаем вам перенести Ваши заслуги на другом подобном ресурсе к нам.
    Подробности описаны тут -> ссылка
  • Вы можете получать по 2.5% с каждой покупки и продажи на маркете! Подробности в теме Партнёрская программа
Если Вы не хотите скачивать, Вы всегда можетепосмотретьонлайн, просто нажмите кнопку ниже :

Открыть плеер

Torrent_Bot

Торрент-Бот
Бот форума
4 Окт 2016
125
61
20
Страна: Южная Корея
Год выпуска: 2014 г.
Жанр: Психология, криминал, драма
Продолжительность: 10 эпизодов по ~60 минут.
Режиссер: Sung Yong-Il
В ролях:
Сон Чхан Ый - профессор Пэк Нам Бон (доктор Фрост)
Чон Ын Чхэ - Юн Сон А
Ли Юн Чжи - профессор Сон
Сон Чи Ру - детектив Нам Тхэ Бон
Чхве Чон У - Чон Сан Вон (декан факультета психологии)


Описание: В центре истории - доктор психологии Пэк Нам Бон. Он настоящий гений, однако из-за перенесенной в детстве операции на мозге не способен сопереживать. За свою неэмоциональность он получает прозвище "доктор Фрост".
Благодаря тонкому уму и удивительной способности подмечать мелочи, он становится помощником полиции при раскрытии преступлений.
(Дорама основана на популярной веб-манхве).


Озвучка - Любительская (двухголосая закадровая)
Kinko(Женский)
Aleister(Мужской)
Семпл


Качество видео: HDTVRip (360р)
Формат видео: AVI
Тип релиза: Полухардсаб (надписи, пояснения терминов)
Видео: XviD, 624x352, 1 397 Кбит/сек, 29.970 кадров/сек
Аудио: AC-3, 2.0, 192 кбит/с, 48,0 кГц


Список эпизодов
1. Другое желание.
2. Провал в памяти.
3. Как носить маску.
4. Опасная любовь.
5. Память.
6. Два солнца.
7. Истерзанный ребенок
8. Лжецы
9. Потерянные воспоминания
10. Потеряные воспоминания. Продолжение.
Подробные тех. данные
General
Complete name : F:Dr.Frost (TVRip 624x352 XviD AC-3 ru) [Kinko,Aleister]Dr.Frost 01 [Kinko,Aleister].avi
Format : AVI
Format/Info : Audio Video Interleave
File size : 672 MiB
Duration : 58mn 39s
Overall bit rate : 1 601 Kbps
Writing application : PotEncoder
Writing library : VirtualDub build 35491/release

Video
ID : 0
Format : MPEG-4 Visual
Format profile : Advanced [email protected]
Format settings, BVOP : 2
Format settings, QPel : No
Format settings, GMC : No warppoints
Format settings, Matrix : Default (H.263)
Muxing mode : Packed bitstream
Codec ID : XVID
Codec ID/Hint : XviD
Duration : 58mn 39s
Bit rate : 1 397 Kbps
Width : 624 pixels
Height : 352 pixels
Display aspect ratio : 16:9
Frame rate : 29.970 fps
Color space : YUV
Chroma subsampling : 4:2:0
Bit depth : 8 bits
Scan type : Progressive
Compression mode : Lossy
Bits/(Pixel*Frame) : 0.212
Stream size : 586 MiB (87%)
Writing library : XviD 73

Audio
ID : 1
Format : AC-3
Format/Info : Audio Coding 3
Mode extension : CM (complete main)
Format settings, Endianness : Big
Codec ID : 2000
Duration : 58mn 39s
Bit rate mode : Constant
Bit rate : 192 Kbps
Channel(s) : 2 channels
Channel positions : Front: L R
Sampling rate : 48.0 KHz
Bit depth : 16 bits
Compression mode : Lossy
Stream size : 80.6 MiB (12%)
Alignment : Aligned on interleaves
Interleave, duration : 33 ms (1.00 video frame)
Interleave, preload duration : 512 ms
Скриншоты
 

Вложения

  • 34 KB Просмотры: 1
    Личеров 0
    Сидеров 0
    Файлов 10
    Объем 6,5 GB
Ваш e-mail не будет опубликован. Он потребуется для подтверждения Вашего поста.
Оформление текста Нажмите «Ввод», чтобы отправить ответ.

Привет!

Мы группа людей которые решили помочь другим в решении их проблем, а так же пользователям с поиском самых свежих и качественных инфопродуктов. За 4 с небольшим месяца мы создали этот форум на который заходят ежедневно тысячи человек и посещаемость постоянно растёт. Мы создали панель лицензирования для защиты PHP скриптов от воровства и SEO панель для мониторинга наших сайтов и выбора верной стратегии их развития. Мы надеемся что то что мы создали пригодится Вам и возможно Вы поможете нам развиваться и совершенствоваться вместе с Вами.

Статистика форума

Темы
359.674
Сообщения
392.687
Пользователи
38.911
Новый пользователь
sb0na

Приложения форума для iOS и Android


У ркн там нет власти ;)