За последнюю неделю опубликовано 129 новых материалов.
Инструкция новичку Путеводитель по форуму Прокси для Telegram Показать подсказки , это бомба!

Скачать Довлатов (2018) WEB-DLRip-AVC от ExKinoRay | iTunes бесплатно через торрент

  • Поучаствуй (в качестве покупателя) в любых пяти совместных покупках (кроме завершённых и "Моментальных") и получи группу "Новичок" навсегда -> ссылка на раздел
  • Получай до 480 рублей за каждого приглашенного пользователя!
    представляем Вам очередное расширение партнерской программы, подробности описаны тут -> ссылка
  • 90% материалов доступно к скачиванию после простой регистрации!
    Если же ты хочешь скачивать материалы без требования оставлять отзывы то получи группу "Новичок", 10 способов повышения описаны тут -> ссылка
  • К сожалению количество битых ссылок растет и мы уже не можем их оперативно восстанавливать поэтому просим помощи у каждого нашего пользователя.
    С сегодняшнего дня, за каждую восстановленную ссылку мы заплатим Вам.
    Подробнее тут -> ссылка
  • Перенесем твои заслуги с другого ресурса!
    Мы понимаем как сложно прокачивать аккаунты на форумах, вроде раскачал аккаунт, а тут появляется ресурс в 100 раз круче но тоже с системой прокачки и снова качать аккаунт...
    Предлагаем вам перенести Ваши заслуги на другом подобном ресурсе к нам.
    Подробности описаны тут -> ссылка
  • Вы можете получать по 2.5% с каждой покупки и продажи на маркете! Подробности в теме Партнёрская программа
Если Вы не хотите скачивать, Вы всегда можетепосмотретьонлайн, просто нажмите кнопку ниже :

Открыть плеер

Torrent_Bot

Торрент-Бот
Бот форума
4 Окт 2016
125
49
20
Информация о фильме
Название: Довлатов
Год выпуска: 2018
Жанр: Драма, мелодрама, биография
Режиссер: Алексей Герман мл.
В ролях: Милан Марич, Хелена Суецкая, Ева Герр, Артур Бесчастный, Данила Козловский, Антон Шагин, Светлана Ходченкова, Елена Лядова, Игорь Митюшкин, Пётр Гонсовский, Тамара Оганесян, Анна Екатерининская, Сергей Толстов, Ханна Слешиньская, Аревик Геворкян

О фильме:
Фильм о нескольких днях из жизни писателя Сергея Довлатова в Ленинграде начала 70-х годов накануне эмиграции его друга, будущего лауреата Нобелевской премии Иосифа Бродского. Это круговорот из парадоксальных и смешных ситуаций. Столкновение с криминалом, светская и литературная жизнь Ленинграда, киностудия «Ленфильм», музыка, чтение стихов, ремесло журналиста, страстное желание купить для своей дочери куклу, которую не достать нигде. В череде жизненных коллизий, иногда смешных, а иногда пронзительных, зритель открывает для себя жизнь тонкого, блестящего, ироничного человека, который выбирает свой творческий путь, чтобы позже превратиться в одного из самых популярных русских прозаиков XX века.



Страна: Россия, Польша, Сербия
Студия: Apple Film Productions, Art & Popcorn, Первый канал
Продолжительность: 02:06:10
Перевод: не требуется | iTunes


Файл
Формат: MKV
Качество: WEB-DLRip-AVC
Видео: MPEG-4 AVC, 1024x428 (2.40:1), 24.000 fps, 1796 Kbps, 0.171 bit/pixel
Аудио: 48 kHz, AC3, 5.1 ch, ~384 kbps avg

MI
General
Unique ID : 200826193697586509306854200712938361182 (0x9715B7CF3CE6983AAB9D3E53F93B915E)
Complete name : D:Dovlatov.2018.WEB-DLRip.AVC.ExKinoRay.mkv
Format : Matroska
Format version : Version 2
File size : 1.92 GiB
Duration : 2 h 6 min
Overall bit rate : 2 180 kb/s
Movie name : DOVLATOV 2018 from ExKinoRay
Encoded date : UTC 2018-04-09 04:49:46
Writing application : mkvmerge v5.6.0 ('Kenya Kane') built on May 27 2012 16:44:04
Writing library : libebml v1.2.3 + libmatroska v1.3.0

Video
ID : 1
Format : AVC
Format/Info : Advanced Video Codec
Format profile : [email protected]
Format settings, CABAC : Yes
Format settings, ReFrames : 12 frames
Codec ID : V_MPEG4/ISO/AVC
Duration : 2 h 6 min
Bit rate : 1 796 kb/s
Width : 1 024 pixels
Height : 428 pixels
Display aspect ratio : 2.40:1
Frame rate mode : Constant
Frame rate : 24.000 FPS
Color space : YUV
Chroma subsampling : 4:2:0
Bit depth : 8 bits
Scan type : Progressive
Bits/(Pixel*Frame) : 0.171
Stream size : 1.54 GiB (80%)
Title : Enigma
Writing library : x264 core 152 r2851 ba24899
Encoding settings : cabac=1 / ref=12 / deblock=1:-2:-2 / analyse=0x3:0x113 / me=umh / subme=10 / psy=1 / psy_rd=1.05:0.10 / mixed_ref=1 / me_range=32 / chroma_me=1 / trellis=2 / 8x8dct=1 / cqm=0 / deadzone=21,11 / fast_pskip=0 / chroma_qp_offset=-3 / threads=12 / lookahead_threads=3 / sliced_threads=0 / nr=0 / decimate=0 / interlaced=0 / bluray_compat=0 / constrained_intra=0 / bframes=10 / b_pyramid=2 / b_adapt=2 / b_bias=0 / direct=3 / weightb=1 / open_gop=0 / weightp=2 / keyint=240 / keyint_min=24 / scenecut=40 / intra_refresh=0 / rc_lookahead=40 / rc=2pass / mbtree=0 / bitrate=1796 / ratetol=1.0 / qcomp=0.60 / qpmin=0 / qpmax=51 / qpstep=4 / cplxblur=20.0 / qblur=0.5 / vbv_maxrate=50000 / vbv_bufsize=62500 / nal_hrd=none / filler=0 / ip_ratio=1.40 / pb_ratio=1.30 / aq=1:1.00
Language : English
Default : Yes
Forced : No
Color range : Limited
Color primaries : BT.709
Transfer characteristics : BT.709
Matrix coefficients : BT.709

Audio
ID : 2
Format : AC-3
Format/Info : Audio Coding 3
Mode extension : CM (complete main)
Format settings, Endianness : Big
Codec ID : A_AC3
Duration : 2 h 6 min
Bit rate mode : Constant
Bit rate : 384 kb/s
Channel(s) : 6 channels
Channel positions : Front: L C R, Side: L R, LFE
Sampling rate : 48.0 kHz
Frame rate : 31.250 FPS (1536 spf)
Compression mode : Lossy
Stream size : 347 MiB (18%)
Title : iTunes
Language : Russian
Default : Yes
Forced : No

Menu
00:00:00.000 : en:Глава 1
00:06:56.916 : en:Глава 2
00:16:00.291 : en:Глава 3
00:25:23.124 : en:Глава 4
00:31:55.082 : en:Глава 5
00:38:19.707 : en:Глава 6
00:46:15.290 : en:Глава 7
00:53:14.040 : en:Глава 8
01:01:16.540 : en:Глава 9
01:06:15.540 : en:Глава 10
01:11:36.706 : en:Глава 11
01:16:55.497 : en:Глава 12
01:25:34.330 : en:Глава 13
01:33:43.038 : en:Глава 14
01:38:31.663 : en:Глава 15
01:45:28.704 : en:Глава 16
01:51:57.120 : en:Глава 17



Релиз от:

Автор релиза:
 

Вложения

  • 20,2 KB Просмотры: 0
    Личеров 0
    Сидеров 0
    Файлов 1
    Объем 1,9 GB
Ваш e-mail не будет опубликован. Он потребуется для подтверждения Вашего поста.
Оформление текста Нажмите «Ввод», чтобы отправить ответ.

Привет!

Мы группа людей которые решили помочь другим в решении их проблем, а так же пользователям с поиском самых свежих и качественных инфопродуктов. За 4 с небольшим месяца мы создали этот форум на который заходят ежедневно тысячи человек и посещаемость постоянно растёт. Мы создали панель лицензирования для защиты PHP скриптов от воровства и SEO панель для мониторинга наших сайтов и выбора верной стратегии их развития. Мы надеемся что то что мы создали пригодится Вам и возможно Вы поможете нам развиваться и совершенствоваться вместе с Вами.

Статистика форума

Темы
356.732
Сообщения
388.556
Пользователи
36.629
Новый пользователь
sova30

Приложения форума для iOS и Android


У ркн там нет власти ;)