За последнюю неделю опубликовано 167 новых материалов.
Инструкция новичку Путеводитель по форуму Прокси для Telegram Показать подсказки , это бомба!

Кёр-оглы (1960) VHSRip от New-Team

  • Поучаствуй (в качестве покупателя) в любых пяти совместных покупках (кроме завершённых и "Моментальных") и получи группу "Новичок" навсегда -> ссылка на раздел
  • Получай до 480 рублей за каждого приглашенного пользователя!
    представляем Вам очередное расширение партнерской программы, подробности описаны тут -> ссылка
  • 90% материалов доступно к скачиванию после простой регистрации!
    Если же ты хочешь скачивать материалы без требования оставлять отзывы то получи группу "Новичок", 10 способов повышения описаны тут -> ссылка
  • К сожалению количество битых ссылок растет и мы уже не можем их оперативно восстанавливать поэтому просим помощи у каждого нашего пользователя.
    С сегодняшнего дня, за каждую восстановленную ссылку мы заплатим Вам.
    Подробнее тут -> ссылка
  • Перенесем твои заслуги с другого ресурса!
    Мы понимаем как сложно прокачивать аккаунты на форумах, вроде раскачал аккаунт, а тут появляется ресурс в 100 раз круче но тоже с системой прокачки и снова качать аккаунт...
    Предлагаем вам перенести Ваши заслуги на другом подобном ресурсе к нам.
    Подробности описаны тут -> ссылка
  • Вы можете получать по 2.5% с каждой покупки и продажи на маркете! Подробности в теме Партнёрская программа
Если Вы не хотите скачивать, Вы всегда можетепосмотретьонлайн, просто нажмите кнопку ниже :

Открыть плеер

Torrent_Bot

Торрент-Бот
Бот форума
4 Окт 2016
125
60
20
0512438491056a6a91a4617b999f6640.png
Мы "В КОНТАКТЕ"

cc2571546ee3609d186db69d458936ba.png
Страна: СССР
Производство: Азербайджанфильм

Жанр: военный, биография, история
Год выпуска: 1960
Продолжительность: 01:32:59

Перевод: Не требуется
Cубтитры: нет
Оригинальная аудиодорожка: русский

Режиссер: Гусейн Сеид-заде

В ролях:
Афрасияб Мамедов, Лейла Бадирбейли (Джаванширова), Агададаш Курбанов, Исмаил Дагестанлы, Марзия Давудова, Али Курбанов, Тамилла Агамирова, Мовсун Санани, Мамедсадых Нуриев, Атамоглан Рзаев, Алиага Агаев, Мухтар Маниев, Салман Дадашев, Мелик Дадашев, М. Фарзалиев, Гиви Тохадзе, Аладдин Аббасов...
Об актёрах подробней

Описание:
Неприступная крепость стоит на вершине, её охраняют вооружённые стражники. Каждый день в окно красавицы Нигяр, дочери хана, влетает стрела и приносит цветок от любимого, конюха Кёр-оглы. Когда-то он спас девушку от когтей разъярённой тигрицы. С той поры они полюбили друг друга.


123097a52b86a72863b613e06ab4595d.gif420dab827dd887beadf31d5b383f8df7.png


Исходник: S-VHS
Качество видео: VHSRip
Формат видео: AVI

Видео: 704x400 (16:9), 25,000 кадров/сек, XviD ~ 1477 kbps avg, 0.210 bit/pixel
Аудио: 48 kHz, Dolby Digital AC3 2.0, 192 kbps

Раздача от: 0512438491056a6a91a4617b999f6640.png
MediaInfo
Общее
Полное имя : Keor-ogly.1960.VHSRip_[New-team]_by_AVP_Studio.avi
Формат : AVI
Формат/Информация : Audio Video Interleave
Размер файла : 1,09 Гбайт
Продолжительность : 1 ч. 32 м.
Общий поток : 1680 Кбит/сек

Видео
Идентификатор : 0
Формат : MPEG-4 Visual
Профиль формата : Advanced [email protected]
Настройки формата : BVOP1 / Custom Matrix
Параметр BVOP формата : 1
Параметр QPel формата : Нет
Параметр GMC формата : Без точки перехода
Параметр матрицы формата : Выборочная
Идентификатор кодека : XVID
Идентификатор кодека/Подсказка : XviD
Продолжительность : 1 ч. 32 м.
Битрейт : 1477 Кбит/сек
Ширина : 704 пикселя
Высота : 400 пикселей
Соотношение сторон : 16:9
Частота кадров : 25,000 кадров/сек
Цветовое пространство : YUV
Субдискретизация насыщенности : 4:2:0
Битовая глубина : 8 бит
Тип развёртки : Прогрессивная
Метод сжатия : С потерями
Бит/(Пиксели*Кадры) : 0.210
Размер потока : 982 Мбайт (88%)
Библиотека кодирования : XviD 73

Аудио
Идентификатор : 1
Формат : AC-3
Формат/Информация : Audio Coding 3
Идентификатор кодека : 2000
Продолжительность : 1 ч. 32 м.
Вид битрейта : Постоянный
Битрейт : 192 Кбит/сек
Каналы : 2 канала
Расположение каналов : Front: L R
Частота : 48,0 КГц
Частота кадров : 31,250 кадров/сек (1536 SPF)
Битовая глубина : 16 бит
Метод сжатия : С потерями
Размер потока : 128 Мбайт (11%)
Выравнивание : Соединение по промежуткам
Продолжительность промежутка : 32 мс. (0,80 видеокадр)
Скриншоты
605aa9c435027d2d07e431571f816eff.png64274b17373854fde43037c992db87c7.pnge24ef3280279080df7cbc2661600e88f.png0a627873d4fd27e9dc4fd8d150e4dad7.png
 

Вложения

Похожие темы

Ваш e-mail не будет опубликован. Он потребуется для подтверждения Вашего поста.
Оформление текста Нажмите «Ввод», чтобы отправить ответ.

Привет!

Мы группа людей которые решили помочь другим в решении их проблем, а так же пользователям с поиском самых свежих и качественных инфопродуктов. За 4 с небольшим месяца мы создали этот форум на который заходят ежедневно тысячи человек и посещаемость постоянно растёт. Мы создали панель лицензирования для защиты PHP скриптов от воровства и SEO панель для мониторинга наших сайтов и выбора верной стратегии их развития. Мы надеемся что то что мы создали пригодится Вам и возможно Вы поможете нам развиваться и совершенствоваться вместе с Вами.

Статистика форума

Темы
359.674
Сообщения
392.663
Пользователи
38.874
Новый пользователь
Валера228

Приложения форума для iOS и Android


У ркн там нет власти ;)