За последнюю неделю опубликовано 96 новых материалов.
Инструкция новичку Путеводитель по форуму Прокси для Telegram Показать подсказки , это бомба!

Ретро сборник "Сделано в С.С.С.Р." Дискография CD5 (2007-2008) APE by гаврила

  • Поучаствуй (в качестве покупателя) в любых пяти совместных покупках (кроме завершённых и "Моментальных") и получи группу "Новичок" навсегда -> ссылка на раздел
  • Получай до 480 рублей за каждого приглашенного пользователя!
    представляем Вам очередное расширение партнерской программы, подробности описаны тут -> ссылка
  • 90% материалов доступно к скачиванию после простой регистрации!
    Если же ты хочешь скачивать материалы без требования оставлять отзывы то получи группу "Новичок", 10 способов повышения описаны тут -> ссылка
  • К сожалению количество битых ссылок растет и мы уже не можем их оперативно восстанавливать поэтому просим помощи у каждого нашего пользователя.
    С сегодняшнего дня, за каждую восстановленную ссылку мы заплатим Вам.
    Подробнее тут -> ссылка
  • Перенесем твои заслуги с другого ресурса!
    Мы понимаем как сложно прокачивать аккаунты на форумах, вроде раскачал аккаунт, а тут появляется ресурс в 100 раз круче но тоже с системой прокачки и снова качать аккаунт...
    Предлагаем вам перенести Ваши заслуги на другом подобном ресурсе к нам.
    Подробности описаны тут -> ссылка
  • Вы можете получать по 2.5% с каждой покупки и продажи на маркете! Подробности в теме Партнёрская программа

Torrent_Bot

Торрент-Бот
Бот форума
4 Окт 2016
125
61
20
РЕТРО СБОРНИК "СДЕЛАНО В С.С.С.Р." Дискография CD5-CD5 © APE



Трек лист:
01. Свадебный марш (отрывок) (Ф.Мендельсон-Бартольди) Оркестр - 1.00
02. И продолжение следует (Ю.Левитин – М.Матусовский) А.Пугачева - 2.57
03. Песня первой любви (А.Бабаджанян – Г.Регистан) С.Давидян - 2.55
04. Выходной (Б.Потемкин) Н.Бродская - 2.30
05. Вчера, когда я был молод (Ш.Азнавур – Крэтцмер) Дин Рид - 3.35
06. Артист поет (М.Долган - Е.Кримерман) ВИА «Норок» - 2.33
07. О, песня звонкая (Р.Бабаев – З.Лоташ) Р.Бейбутов - 4.33
08. Червона рута (В.Ивасюк) ВИА Но То Цо - 3.15
09. Дилайла (Мэйсон – Рид) Том Джонс - 3.20
10. Свет улыбки твоей (Д.Львов-Компанеец – В.Татаринов) Л.Долина - 2.50
11. Веселый дедушка (К.Ференц – А.Шоймош) Янош Коош - 2.04
12. Черный поезд (В.Гаваши) Янош Коош - 3.04
13. Год любви (А.Бабаджанян – А.Вознесенский) А.Бабаджанян - 2.23
14. Черемшина (В.Михайлюк – М.Юрийчук) А.Дедич - 3.42
15. Сердце не спит (В.Добрынин – Л.Дербенев) Т. Мяги - 5.22
16 Мы «Филипинки» (Я.Янковский) Ансамбль «Филипинки» - 2.24
17 Валентина (Я.Янковский) Ансамбль «Филипинки» - 2.37
18 Чудо Юдо (В.Семенов – В.Дюнин) Е.Суржикова - 3.08
19 Хенки-пенки (Ф.Пуго) Янош Коош - 2.53
20 Арифметика (В.Хвойницкий – Н.Олев) А.Ведищева - 2.46

Страна: Россия
Жанр:Retro
Год выпуска: 2007-2008
Формат: APE (image + .cue)
Битрейт аудио: lossless

Exact Audio Copy V0.99 prebeta 3 from 28. July 2007
Отчёт EAC об извлечении, выполненном 24. сентября 2008, 16:16
Various / СДЕЛАНО В СССР 5
Дисковод: Optiarc DVD RW AD-7190A Adapter: 0 ID: 0
Режим чтения : Достоверность
Использование точного потока : Да
Отключение кэша аудио : Да
Использование указателей C2 : Нет
Коррекция смещения при чтении : 48
Способность читать области Lead-in и Lead-out : Нет
Заполнение пропущенных сэмплов тишиной : Да
Удаление блоков с тишиной в начале и конце : Нет
При вычислениях CRC использовались нулевые сэмплы : Да
Интерфейс : Встроенный Win32-интерфейс для Win NT/2000
Выходной формат : Внутренние WAV-операции
Формат сэмплов : 44.100 Гц; 16 бит; стерео
TOC извлечённого CD
Трек | Старт | Длительность | Начальный сектор | Конечный сектор
---------------------------------------------------------------------
1 | 0:00.00 | 1:05.13 | 0 | 4887
2 | 1:05.13 | 3:01.68 | 4888 | 18530
3 | 4:07.06 | 2:59.54 | 18531 | 32009
4 | 7:06.60 | 2:37.43 | 32010 | 43827
5 | 9:44.28 | 3:40.07 | 43828 | 60334
6 | 13:24.35 | 2:38.68 | 60335 | 72252
7 | 16:03.28 | 4:38.74 | 72253 | 93176
8 | 20:42.27 | 3:21.55 | 93177 | 108306
9 | 24:04.07 | 3:27.34 | 108307 | 123865
10 | 27:31.41 | 2:57.09 | 123866 | 137149
11 | 30:28.50 | 2:09.70 | 137150 | 146894
12 | 32:38.45 | 3:10.04 | 146895 | 161148
13 | 35:48.49 | 2:30.41 | 161149 | 172439
14 | 38:19.15 | 3:47.45 | 172440 | 189509
15 | 42:06.60 | 5:26.18 | 189510 | 213977
16 | 47:33.03 | 2:30.58 | 213978 | 225285
17 | 50:03.61 | 2:42.53 | 225286 | 237488
18 | 52:46.39 | 3:15.47 | 237489 | 252160
19 | 56:02.11 | 2:59.15 | 252161 | 265600
20 | 59:01.26 | 2:49.74 | 265601 | 278349
Характеристики диапазона извлечения и сообщения об ошибках
Выбранный диапазон
Имя файла L:МУЗЫКАRETRO-001RETRO SBORNIK Sdelano v S.S.S.R. © MelodijaSdelano v S.S.S.R. © 2008 Melodija Vol. 05Various - СДЕЛАНО В СССР 5.wav
Пиковый уровень 100.0 %
Качество диапазона 100.0 %
CRC теста 7623A338
CRC копии 7623A338
Копирование... OK
Ошибок не произошло
Конец отчёта
 

Вложения

  • 15,7 KB Просмотры: 1
    Личеров 0
    Сидеров 0
    Файлов 12
    Объем 355,8 MB
Ваш e-mail не будет опубликован. Он потребуется для подтверждения Вашего поста.
Оформление текста Нажмите «Ввод», чтобы отправить ответ.

Привет!

Мы группа людей которые решили помочь другим в решении их проблем, а так же пользователям с поиском самых свежих и качественных инфопродуктов. За 4 с небольшим месяца мы создали этот форум на который заходят ежедневно тысячи человек и посещаемость постоянно растёт. Мы создали панель лицензирования для защиты PHP скриптов от воровства и SEO панель для мониторинга наших сайтов и выбора верной стратегии их развития. Мы надеемся что то что мы создали пригодится Вам и возможно Вы поможете нам развиваться и совершенствоваться вместе с Вами.

Статистика форума

Темы
359.705
Сообщения
392.823
Пользователи
39.073
Новый пользователь
Tatiana_X

Приложения форума для iOS и Android


У ркн там нет власти ;)