За последнюю неделю опубликовано 143 новых материалов.
Инструкция новичку Путеводитель по форуму Прокси для Telegram Показать подсказки , это бомба!

Скачать Эдита Пьеха - Золотая коллекция Ретро (2006) APE by гаврила бесплатно через торрент

  • Поучаствуй (в качестве покупателя) в любых пяти совместных покупках (кроме завершённых и "Моментальных") и получи группу "Новичок" навсегда -> ссылка на раздел
  • Получай до 480 рублей за каждого приглашенного пользователя!
    представляем Вам очередное расширение партнерской программы, подробности описаны тут -> ссылка
  • 90% материалов доступно к скачиванию после простой регистрации!
    Если же ты хочешь скачивать материалы без требования оставлять отзывы то получи группу "Новичок", 10 способов повышения описаны тут -> ссылка
  • К сожалению количество битых ссылок растет и мы уже не можем их оперативно восстанавливать поэтому просим помощи у каждого нашего пользователя.
    С сегодняшнего дня, за каждую восстановленную ссылку мы заплатим Вам.
    Подробнее тут -> ссылка
  • Перенесем твои заслуги с другого ресурса!
    Мы понимаем как сложно прокачивать аккаунты на форумах, вроде раскачал аккаунт, а тут появляется ресурс в 100 раз круче но тоже с системой прокачки и снова качать аккаунт...
    Предлагаем вам перенести Ваши заслуги на другом подобном ресурсе к нам.
    Подробности описаны тут -> ссылка
  • Вы можете получать по 2.5% с каждой покупки и продажи на маркете! Подробности в теме Партнёрская программа

Torrent_Bot

Торрент-Бот
Бот форума
4 Окт 2016
125
59
20
Трэклист:
1. Каролинка (польск. нар. песня)
2. Белые ночи (Г.Портнов - Н.Гвоздев)
3. Песенка без слов (Л.Тарновский - Е.Воскресенский)
4. Придёт и к вам любовь (М.Фрадкин - Р.Рождественский)
5. Наташка (Б.Потёмкин - А.Аускерн)
6. Главное, ребята, сердцем не стареть (А.Пахмутова - С.Гребенников,Н.Добронравов)
7. Так легко (Л.Лядова - Г.Ходосов)
8. Я иду и пою (В.Хомутов - С.Ольгин)
9. Хорошо! (А.Броневицкий - М.Яковлев)
10. Зимняя песенка (Вилли Токарев - Е.Герц)
11. Облака (А.Броневицкий - Р.Рождественский)
12. Я счастье несу (Г.Портнов - Ю.Принцев)
13. Туристы (А.Броневицкий - С.Фогельсон)
14. Ветер (Е.Брук - В.Суслов)
15. Разве привыкают к чудесам (М.Польнарефф - русск. текст Г.Горбовского)
16. Я шагаю по Москве (А.Петров - Г.Шпаликов)
17. Твой отец (А.Долуханян - Н.Доризо)
18. Наш сосед (Б.Потёмкин)
19. Город детства (Ф.Миллер - Р.Рождественский)

Жанр:Retro
Год выпуска диска: 2006
Производитель диска: Россия
Аудио кодек: APE
Тип рипа: image+.cue
Битрейт аудио: lossless
Продолжительность: 50м 55с

Exact Audio Copy V0.99 prebeta 4 from 23. January 2008
Отчёт EAC об извлечении, выполненном 27. сентября 2008, 23:52
Эдита Пьеха / Золотая коллекция ретро
Дисковод: Optiarc DVD RW AD-5170A Adapter: 0 ID: 0
Режим чтения : Достоверность
Использование точного потока : Да
Отключение кэша аудио : Да
Использование указателей C2 : Нет
Коррекция смещения при чтении : 48
Способность читать области Lead-in и Lead-out : Нет
Заполнение пропущенных сэмплов тишиной : Да
Удаление блоков с тишиной в начале и конце : Нет
При вычислениях CRC использовались нулевые сэмплы : Да
Интерфейс : Встроенный Win32-интерфейс для Win NT/2000
Выходной формат : Внутренние WAV-операции
Формат сэмплов : 44.100 Гц; 16 бит; стерео
TOC извлечённого CD
Трек | Старт | Длительность | Начальный сектор | Конечный сектор
---------------------------------------------------------------------
1 | 0:00.00 | 1:59.26 | 0 | 8950
2 | 1:59.26 | 2:52.35 | 8951 | 21885
3 | 4:51.61 | 1:49.48 | 21886 | 30108
4 | 6:41.34 | 3:08.31 | 30109 | 44239
5 | 9:49.65 | 3:16.51 | 44240 | 58990
6 | 13:06.41 | 2:19.63 | 58991 | 69478
7 | 15:26.29 | 2:08.12 | 69479 | 79090
8 | 17:34.41 | 2:19.22 | 79091 | 89537
9 | 19:53.63 | 2:27.63 | 89538 | 100625
10 | 22:21.51 | 2:44.65 | 100626 | 112990
11 | 25:06.41 | 2:46.26 | 112991 | 125466
12 | 27:52.67 | 4:12.61 | 125467 | 144427
13 | 32:05.53 | 2:39.22 | 144428 | 156374
14 | 34:45.00 | 2:19.52 | 156375 | 166851
15 | 37:04.52 | 2:12.10 | 166852 | 176761
16 | 39:16.62 | 1:54.15 | 176762 | 185326
17 | 41:11.02 | 3:16.51 | 185327 | 200077
18 | 44:27.53 | 2:38.53 | 200078 | 211980
19 | 47:06.31 | 3:50.24 | 211981 | 229254
Характеристики диапазона извлечения и сообщения об ошибках
Выбранный диапазон
Имя файла D:AudioЭ.ПьехаЭдита Пьеха - Золотая коллекция ретро.wav
Пиковый уровень 100.0 %
Качество диапазона 100.0 %
CRC копии 7D58CA49
Копирование... OK
Ошибок не произошло
Конец отчёта
 

Вложения

  • 11,7 KB Просмотры: 1
    Личеров 0
    Сидеров 0
    Файлов 11
    Объем 257 MB
Ваш e-mail не будет опубликован. Он потребуется для подтверждения Вашего поста.
Оформление текста Нажмите «Ввод», чтобы отправить ответ.

Привет!

Мы группа людей которые решили помочь другим в решении их проблем, а так же пользователям с поиском самых свежих и качественных инфопродуктов. За 4 с небольшим месяца мы создали этот форум на который заходят ежедневно тысячи человек и посещаемость постоянно растёт. Мы создали панель лицензирования для защиты PHP скриптов от воровства и SEO панель для мониторинга наших сайтов и выбора верной стратегии их развития. Мы надеемся что то что мы создали пригодится Вам и возможно Вы поможете нам развиваться и совершенствоваться вместе с Вами.

Статистика форума

Темы
359.592
Сообщения
392.478
Пользователи
38.725
Новый пользователь
yura_armatyra

Приложения форума для iOS и Android


У ркн там нет власти ;)