За сегодня опубликовано 0 новых материалов.
Инструкция новичку Путеводитель по форуму Прокси для Telegram Показать подсказки , это бомба!

Скачать 300 спартанцев / 300 (2006) BDRip-HEVC 1080p | D бесплатно через торрент

  • Получай до 480 рублей за каждого приглашенного пользователя!
    представляем Вам очередное расширение партнерской программы, подробности описаны тут -> ссылка
  • 90% материалов доступно к скачиванию после простой регистрации!
    Если же ты хочешь скачивать материалы без требования оставлять отзывы то получи группу "Новичок", 10 способов повышения описаны тут -> ссылка
  • К сожалению количество битых ссылок растет и мы уже не можем их оперативно восстанавливать поэтому просим помощи у каждого нашего пользователя.
    С сегодняшнего дня, за каждую восстановленную ссылку мы заплатим Вам.
    Подробнее тут -> ссылка
  • Перенесем твои заслуги с другого ресурса!
    Мы понимаем как сложно прокачивать аккаунты на форумах, вроде раскачал аккаунт, а тут появляется ресурс в 100 раз круче но тоже с системой прокачки и снова качать аккаунт...
    Предлагаем вам перенести Ваши заслуги на другом подобном ресурсе к нам.
    Подробности описаны тут -> ссылка
  • Вы можете получать по 2.5% с каждой покупки и продажи на маркете! Подробности в теме Партнёрская программа
Если Вы не хотите скачивать, Вы всегда можете посмотреть онлайн, просто нажмите кнопку ниже :

Открыть плеер

Torrent_Bot

Торрент-Бот
Бот форума
4 Окт 2016
125
32
20



Год выхода: 2006
Страна: США
Жанр:Фэнтези, боевик
Продолжительность: 01:56:39
Перевод: Дублированный (Лицензия)

Режиссер: Зак Снайдер
В главных ролях: Джерард Батлер, Майкл Фассбендер, Винсент Риган, Дэвид Уэнэм, Лина Хиди, Доминик Уэст

Описание: События картины повествуют о кровопролитной битве при Фермопилах в 480 году до н. э., в которой триста отважных спартанцев во главе со своим царем Леонидом преградили путь многотысячной армии персидского царя Ксеркса.

Качество: BDRip 1080p
Видео: HEVC/H.265, 1920x800, ~10,6 Мbps
Аудио 1: AC3, 6 ch, 448 Kbps - Дублированный
Аудио 2: AC3, 6 ch, 640 Kbps - Английский
Субтитры: Русские, английские



Mediainfo
Общее
Уникальный идентификатор : 181759338882214125157407820910627720743 (0x88BD9349A5DF3874B74A657AE0650E27)
Полное имя : F:РАЗДАЧИ300 спартанцев (1080p) HEVC.mkv
Формат : Matroska
Версия формата : Version 4 / Version 2
Размер файла : 9,54 Гбайт
Продолжительность : 1 ч. 56 м.
Общий поток : 11,7 Мбит/сек
Дата кодирования : UTC 2016-07-08 20:02:54
Программа кодирования : mkvmerge v9.2.0 ('Photograph') 64bit
Библиотека кодирования : libebml v1.3.3 + libmatroska v1.4.4

Видео
Идентификатор : 1
Формат : HEVC
Формат/Информация : High Efficiency Video Coding
Профиль формата : [email protected]@Main
Идентификатор кодека : V_MPEGH/ISO/HEVC
Продолжительность : 1 ч. 56 м.
Битрейт : 10,6 Мбит/сек
Ширина : 1920 пикселей
Высота : 800 пикселей
Соотношение сторон : 2,40:1
Режим частоты кадров : Постоянный
Частота кадров : 23,976 (24000/1001) кадра/сек
Цветовое пространство : YUV
Субдискретизация насыщенности : 4:2:0
Битовая глубина : 8 бит
Бит/(Пиксели*Кадры) : 0.288
Размер потока : 8,65 Гбайт (91%)
Библиотека кодирования : x265 1.9+229-a932b4366235:[Windows][GCC 5.3.1][64 bit] 8bit
Настройки программы : wpp / ctu=64 / min-cu-size=8 / max-tu-size=32 / tu-intra-depth=1 / tu-inter-depth=1 / me=2 / subme=5 / merange=92 / no-rect / no-amp / max-merge=4 / temporal-mvp / no-early-skip / rskip / rdpenalty=0 / no-tskip / no-tskip-fast / strong-intra-smoothing / no-lossless / no-cu-lossless / no-constrained-intra / no-fast-intra / open-gop / no-temporal-layers / interlace=0 / keyint=250 / min-keyint=23 / scenecut=40 / rc-lookahead=60 / lookahead-slices=0 / bframes=8 / bframe-bias=0 / b-adapt=2 / ref=5 / limit-refs=3 / no-limit-modes / weightp / weightb / aq-mode=1 / qg-size=64 / aq-strength=0.50 / cbqpoffs=0 / crqpoffs=0 / rd=3 / psy-rd=2.00 / rdoq-level=2 / psy-rdoq=0.00 / no-rd-refine / signhide / deblock=-3:-3 / no-sao / no-sao-non-deblock / b-pyramid / no-cutree / no-intra-refresh / rc=2 / pass / bitrate=10621 / qcomp=0.60 / qpmin=0 / qpmax=51 / qpstep=4 / cplxblur=20.0 / qblur=0.5 / ipratio=1.40 / pbratio=1.30
Default : Да
Forced : Нет

Аудио #1
Идентификатор : 2
Формат : AC-3
Формат/Информация : Audio Coding 3
Идентификатор кодека : A_AC3
Продолжительность : 1 ч. 56 м.
Вид битрейта : Постоянный
Битрейт : 448 Кбит/сек
Каналы : 6 каналов
Расположение каналов : Front: L C R, Side: L R, LFE
Частота : 48,0 КГц
Частота кадров : 31,250 кадров/сек (1536 SPF)
Битовая глубина : 16 бит
Метод сжатия : С потерями
Размер потока : 374 Мбайт (4%)
Заголовок : Дублированный, BluRay CEE
Язык : Russian
ServiceKind/ : Complete Main
Default : Да
Forced : Да

Аудио #2
Идентификатор : 3
Формат : AC-3
Формат/Информация : Audio Coding 3
Идентификатор кодека : A_AC3
Продолжительность : 1 ч. 56 м.
Вид битрейта : Постоянный
Битрейт : 640 Кбит/сек
Каналы : 6 каналов
Расположение каналов : Front: L C R, Side: L R, LFE
Частота : 48,0 КГц
Частота кадров : 31,250 кадров/сек (1536 SPF)
Битовая глубина : 16 бит
Метод сжатия : С потерями
Размер потока : 533 Мбайт (5%)
Язык : English
ServiceKind/ : Complete Main
Default : Нет
Forced : Нет

Текст #1
Идентификатор : 4
Формат : UTF-8
Идентификатор кодека : S_TEXT/UTF8
Идентификатор кодека/Информация : UTF-8 Plain Text
Продолжительность : 1 ч. 49 м.
Битрейт : 76 бит/сек
ElementCount : 1008
Размер потока : 60,7 Кбайт (0%)
Язык : Russian
Default : Нет
Forced : Нет

Текст #2
Идентификатор : 5
Формат : UTF-8
Идентификатор кодека : S_TEXT/UTF8
Идентификатор кодека/Информация : UTF-8 Plain Text
Продолжительность : 1 ч. 47 м.
Битрейт : 42 бит/сек
ElementCount : 956
Размер потока : 33,2 Кбайт (0%)
Язык : English
Default : Нет
Forced : Нет

Меню
00:00:00.000 : en:Spartan Education
00:05:16.983 : en:Messenger From Persia
00:10:23.289 : en:Sparta's Reply
00:13:16.796 : en:The Ephors
00:16:52.177 : en:The Oracle
00:19:44.349 : en:What Should a Free Man Do?
00:22:28.347 : en:With or on Your Shield
00:27:03.621 : en:More Soldiers Than You
00:29:16.254 : en:Hunters of Men's Souls
00:33:17.829 : en:Glorious Rain
00:35:06.771 : en:Fraction of the Monster
00:37:49.433 : en:Wall of the Dead
00:40:46.277 : en:Ephialtes' Request
00:44:10.314 : en:Hot Gates Battle
00:49:17.287 : en:Today No Spartan Dies
00:52:46.329 : en:Make Theron Your Ally
00:55:33.663 : en:Meeting Xerxes
01:01:40.863 : en:Immortals Put to the Test
01:05:20.750 : en:Uber Immortal's Fall
01:08:42.952 : en:Numbers Count for Nothing
01:12:43.192 : en:Blood-Drunk
01:15:50.379 : en:Betrayer's Bargain
01:18:38.380 : en:Queen's Bargain
01:22:20.936 : en:prepare for Glory
01:26:43.531 : en:Tell Them Our Story
01:29:11.512 : en:Trickster in True Form
01:33:59.216 : en:Victory in Surrender
01:38:54.595 : en:Fallen Heroes
01:43:26.200 : en:Go Tell the Spartans
01:49:03.537 : en:End Credits
 

Вложения

  • 49 KB Просмотры: 0
    Личеров 0
    Сидеров 0
    Файлов 1
    Объем 9,5 GB
Ваш e-mail не будет опубликован. Он потребуется для подтверждения Вашего поста.
Оформление текста Нажмите «Ввод», чтобы отправить ответ.