За сегодня опубликовано 21 новых материалов.
Инструкция новичку Путеводитель по форуму Прокси для Telegram Показать подсказки , это бомба!

Скачать 1812: Уланская баллада (2012) BDRip от HQ-ViDEO бесплатно через торрент

  • Получай до 480 рублей за каждого приглашенного пользователя!
    представляем Вам очередное расширение партнерской программы, подробности описаны тут -> ссылка
  • 90% материалов доступно к скачиванию после простой регистрации!
    Если же ты хочешь скачивать материалы без требования оставлять отзывы то получи группу "Новичок", 10 способов повышения описаны тут -> ссылка
  • К сожалению количество битых ссылок растет и мы уже не можем их оперативно восстанавливать поэтому просим помощи у каждого нашего пользователя.
    С сегодняшнего дня, за каждую восстановленную ссылку мы заплатим Вам.
    Подробнее тут -> ссылка
  • Перенесем твои заслуги с другого ресурса!
    Мы понимаем как сложно прокачивать аккаунты на форумах, вроде раскачал аккаунт, а тут появляется ресурс в 100 раз круче но тоже с системой прокачки и снова качать аккаунт...
    Предлагаем вам перенести Ваши заслуги на другом подобном ресурсе к нам.
    Подробности описаны тут -> ссылка
  • Вы можете получать по 2.5% с каждой покупки и продажи на маркете! Подробности в теме Партнёрская программа
Если Вы не хотите скачивать, Вы всегда можете посмотреть онлайн, просто нажмите кнопку ниже :

Открыть плеер

Torrent_Bot

Торрент-Бот
Бот форума
4 Окт 2016
125
32
20
1812: Уланская баллада / 1812. Ulanskaya ballada (2012) BDRip
Релиз от HQ-ViDEO




«За любовь! За дружбу! За корону Российской империи!»

Информация о фильме:

Оригинальное название: 1812: Уланская баллада
Год выхода: 2012
Жанр: Приключения
Режиссёр: Олег Фесенко

В ролях: Сергей Безруков, Анатолий Белый, Станислав Дужников, Валерий Николаев, Алексей Макаров, Эрик Фратичелли /Eric Fraticelli/, Гедиминас Адомайтис, Анна Чиповская, Борис Клюев, Антон Соколов

Сюжет фильма:

1812 год. Накануне решающей битвы при Бородино тайный агент Наполеона похищает план сражения. Об этом становится известно Кутузову, и он посылает на перехват своих лучших улан. Путь их лежит в Польшу, где разворачивается бурный роман Наполеона с графиней Валевской…



Страна: Россия
Продолжительность: 01:38:44
Перевод: Не требуется
Субтитры: Отсутствуют

Информация о файле:
Качество: BDRip
Файл: AVI
Кодек:XviD, build 65 codec
Видео: 720 x 400, 16:9; 23.976 fps; ~ 1723 kbps; 0.249 bit/pixel
Аудио : 48 kHz, AC3 Dolby Digital, 3/2 (L,C,R,l,r) + LFE ch, ~384.00 kbps avg

Размер:1494 Mb (1/3 )



MediaInfo
General
Format : AVI
Format/Info : Audio Video Interleave
File size : 1.46 GiB
Duration : 1h 38mn
Overall bit rate : 2 116 Kbps
Movie name : 1812.Ulanskaya.Ballada.2012.RUS.BDRip.XviD.AC3.-HQ-ViDEO
Director : AngelOfTrue
Writing application : VirtualDubMod 1.5.10.3 | www.virtualdub-fr.org || (build 2550/release)
Original source form/Name : Movie
Copyright : HQ-ViDEO
Comment : 03.03.2013

Video
ID : 0
Format : MPEG-4 Visual
Format profile : Advanced [email protected]
Format settings, BVOP : 1
Format settings, QPel : No
Format settings, GMC : No warppoints
Format settings, Matrix : Custom
Codec ID : XVID
Codec ID/Hint : XviD
Duration : 1h 38mn
Bit rate : 1 723 Kbps
Width : 720 pixels
Height : 400 pixels
Display aspect ratio : 16:9
Frame rate : 24.000 fps
Color space : YUV
Chroma subsampling : 4:2:0
Bit depth : 8 bits
Scan type : Progressive
Compression mode : Lossy
Bits/(Pixel*Frame) : 0.249
Stream size : 1.19 GiB (81%)
Writing library : XviD 65

Audio
ID : 1
Format : AC-3
Format/Info : Audio Coding 3
Mode extension : CM (complete main)
Codec ID : 2000
Duration : 1h 38mn
Bit rate mode : Constant
Bit rate : 384 Kbps
Channel(s) : 6 channels
Channel positions : Front: L C R, Side: L R, LFE
Sampling rate : 48.0 KHz
Bit depth : 16 bits
Compression mode : Lossy
Stream size : 271 MiB (18%)
Alignment : Split accross interleaves
Interleave, duration : 42 ms (1.00 video frame)
Interleave, preload duration : 500 ms
Знаете ли вы, что...
Несколько важных сцен фильма снимали в польском замке Чоха под Вроцлавом.

Сергей Безруков, Анатолий Белый, Стас Дужников и Антон Соколов специально занимались верховой ездой и нарабатывали приемы фехтования на саблях до начала съемок.

В процессе съемок эпизодов Бородино активно применялась технология motion control.

Для одного из эпизодов был сконструирован воздушный шар-дирижабль с каркасом длиной в шесть метров.

Многие детали костюмов и аксессуары подлинные, антикварные. Художник по костюмам лично находила ткани, веера, перчатки и камеи на блошиных рынках разных стран.

Практически все оружие, которое использовалось на съемках, было действующим и антикварным. Сабли главных героев исполнены по образцам настоящих клинков, которыми вооружались кавалеристы русской кавалерии в 1812 году.

Специально для съемок было пошито столько аутентичных исторических костюмов, что в мундиры можно было облачить целое войско — более 400 солдат и офицеров. Причем это «войско» состояло из всех видов оружия, которое использовалось в 1812 году враждующими сторонами, русскими и французами. В киношных баталиях сражались не только русские и французские гренадеры и фузилеры, но и уланы, гусары, кирасиры, конные гренадеры, пешие и конные артиллеристы.

Валерий Николаев и Антон Соколов для большей достоверности отказались от помощи каскадеров в сцене дуэли на саблях. Им пришлось фехтовать, балансируя на балках внутренних перекрытий. Сложную сцену снимали 8 часов.

Музыку к фильму написал Максим Дунаевский. Его песни на стихи Дениса Давыдова исполнили Сергей Безруков, Анатолий Белый и Антон Соколов.

Фильм посвящен празднованию 200-летия со дня Бородинского сражения.

В финале фильма, в сцене награждения главных героев при смене планов у героя Антона Соколова то появляется, то пропадает лента золотистого цвета на груди.

Релиз:
Автор рипа:AngelOfTrue
Источник:

ПРИЯТНОГО ПРОСМОТРА!
 

Вложения

  • 16,3 KB Просмотры: 0
    Личеров 0
    Сидеров 0
    Файлов 1
    Объем 1,5 GB
Ваш e-mail не будет опубликован. Он потребуется для подтверждения Вашего поста.
Оформление текста Нажмите «Ввод», чтобы отправить ответ.